<?xml version="1.0" standalone="no"?>
<!DOCTYPE svg PUBLIC "-//W3C//DTD SVG 1.1//EN" "http://www.w3.org/Graphics/SVG/1.1/DTD/svg11.dtd" >
<svg xmlns="http://www.w3.org/2000/svg" xmlns:xlink="http://www.w3.org/1999/xlink" version="1.1">
<metadata>
Created by FontForge 20201107 at Wed Aug 28 12:20:40 2013
 By Jimmy Wärting
2013 published by FontShop International GmbH
</metadata>
<defs>
<font id="MarkPro" horiz-adv-x="1" >
  <font-face 
    font-family="MarkPro"
    font-weight="400"
    font-stretch="normal"
    units-per-em="2000"
    panose-1="2 11 5 4 2 1 1 1 1 2"
    ascent="1580"
    descent="-420"
    x-height="947"
    cap-height="1400"
    bbox="-1349 -477 3132 2206"
    underline-thickness="136"
    underline-position="-260"
    stemh="136"
    stemv="149"
    unicode-range="U+000D-FEFF"
  />
<missing-glyph horiz-adv-x="1201" 
d="M175 0v1400h851v-1400h-851zM311 136h579v1128h-579v-1128z" />
    <glyph glyph-name=".notdef" horiz-adv-x="1201" 
d="M175 0v1400h851v-1400h-851zM311 136h579v1128h-579v-1128z" />
    <glyph glyph-name=".null" horiz-adv-x="0" 
 />
    <glyph glyph-name=".null" horiz-adv-x="0" 
 />
    <glyph glyph-name="CR" unicode="&#xd;" horiz-adv-x="534" 
 />
    <glyph glyph-name="space" unicode=" " horiz-adv-x="534" 
 />
    <glyph glyph-name="exclam" unicode="!" horiz-adv-x="524" 
d="M353 1400l-24 -955h-135l-24 955h183zM262 233c67 0 125 -58 125 -125s-58 -126 -125 -126s-125 59 -125 126s58 125 125 125z" />
    <glyph glyph-name="quotedbl" unicode="&#x22;" horiz-adv-x="1049" 
d="M283 1440h149v-507h-149v507zM617 1440h149v-507h-149v507z" />
    <glyph glyph-name="numbersign" unicode="#" horiz-adv-x="1465" 
d="M261 1032h231l78 368h139l-78 -368h346l78 368h139l-78 -368h228l-29 -133h-228l-83 -391h227l-28 -133h-227l-80 -375h-139l80 375h-346l-80 -375h-139l80 375h-231l29 133h230l83 391h-230zM602 899l-83 -391h346l83 391h-346z" />
    <glyph glyph-name="dollar" unicode="$" horiz-adv-x="1400" 
d="M644 1580h138v-190c177 -12 321 -70 435 -147l-79 -125c-94 64 -218 113 -356 125v-474l32 -4c238 -30 423 -135 420 -358c-3 -240 -201 -373 -452 -396v-198h-138v196c-176 12 -364 77 -478 168l83 123c85 -68 241 -132 395 -145v479l-37 5c-238 31 -404 142 -402 360
c3 229 192 367 439 390v191zM1079 400c1 117 -106 188 -297 218v-461c171 19 295 99 297 243zM362 1003c-1 -115 86 -188 282 -218v457c-167 -19 -281 -106 -282 -239z" />
    <glyph glyph-name="percent" unicode="%" horiz-adv-x="1938" 
d="M463 1419c211 0 370 -156 370 -362c0 -208 -159 -364 -370 -364c-208 0 -366 156 -366 364c0 206 158 362 366 362zM463 1287c-128 0 -226 -96 -226 -230c0 -136 98 -232 226 -232c132 0 229 96 229 232c0 134 -97 230 -229 230zM1488 1400l-883 -1400h-156l883 1400h156
zM1471 707c211 0 370 -157 370 -363c0 -208 -159 -363 -370 -363c-208 0 -366 155 -366 363c0 206 158 363 366 363zM1471 575c-128 0 -226 -96 -226 -231s98 -231 226 -231c132 0 230 96 230 231s-98 231 -230 231z" />
    <glyph glyph-name="ampersand" unicode="&#x26;" horiz-adv-x="1406" 
d="M1370 0h-216l-213 207c-103 -126 -233 -226 -431 -226c-244 0 -399 133 -399 350c0 182 133 305 275 412c-139 136 -205 225 -205 361c0 175 144 315 353 315c206 0 350 -129 350 -307c0 -161 -131 -271 -272 -375l314 -305l217 324l120 -76l-232 -350zM519 122
c138 0 227 68 318 185l-350 338c-118 -89 -216 -183 -216 -309c0 -127 102 -214 248 -214zM342 1095c0 -84 42 -136 169 -261c117 86 214 167 214 271c0 102 -75 173 -191 173c-117 0 -192 -76 -192 -183z" />
    <glyph glyph-name="quotesingle" unicode="'" horiz-adv-x="715" 
d="M283 1440h149v-507h-149v507z" />
    <glyph glyph-name="parenleft" unicode="(" horiz-adv-x="817" 
d="M684 1430l52 -137c-264 -108 -431 -399 -431 -725s167 -616 431 -724l-52 -138c-321 123 -539 461 -539 862c0 402 218 739 539 862z" />
    <glyph glyph-name="parenright" unicode=")" horiz-adv-x="817" 
d="M133 -292l-52 137c264 108 431 399 431 725s-167 616 -431 724l52 138c321 -123 539 -461 539 -862c0 -402 -218 -739 -539 -862z" />
    <glyph glyph-name="asterisk" unicode="*" horiz-adv-x="897" 
d="M136 1255l256 -84v269h114v-269l255 84l35 -110l-255 -83l158 -217l-93 -67l-158 217l-157 -217l-93 67l158 217l-255 83z" />
    <glyph glyph-name="plus" unicode="+" horiz-adv-x="1200" 
d="M668 96h-139v365h-364v136h364v368h139v-368h367v-136h-367v-365z" />
    <glyph glyph-name="comma" unicode="," horiz-adv-x="494" 
d="M187 248h174l-105 -507h-129z" />
    <glyph glyph-name="hyphen" unicode="-" horiz-adv-x="838" 
d="M697 597v-136h-556v136h556z" />
    <glyph glyph-name="period" unicode="." horiz-adv-x="523" 
d="M262 232c67 0 125 -58 125 -125s-58 -126 -125 -126s-125 59 -125 126s58 125 125 125z" />
    <glyph glyph-name="slash" unicode="/" horiz-adv-x="992" 
d="M1005 1540l-849 -1740h-165l849 1740h165z" />
    <glyph glyph-name="zero" unicode="0" horiz-adv-x="1419" 
d="M709 1418c319 0 579 -269 579 -718c0 -448 -260 -718 -579 -718c-318 0 -578 270 -578 718c0 449 260 718 578 718zM709 1270c-229 0 -416 -203 -416 -570s187 -570 416 -570c231 0 418 203 418 570s-187 570 -418 570z" />
    <glyph glyph-name="one" unicode="1" horiz-adv-x="844" 
d="M634 1417v-1417h-154v1193l-414 -179v161z" />
    <glyph glyph-name="two" unicode="2" horiz-adv-x="1099" 
d="M197 1096l-112 90c66 98 189 232 429 232c284 0 447 -186 447 -433c0 -174 -97 -299 -188 -396l-418 -442h652v-147h-881v121l529 558c86 90 144 186 144 306c0 161 -104 286 -290 286c-159 0 -246 -83 -312 -175z" />
    <glyph glyph-name="three" unicode="3" horiz-adv-x="1113" 
d="M507 1418c276 0 463 -156 463 -383c0 -165 -87 -272 -219 -328c148 -54 250 -167 250 -332c0 -266 -234 -393 -481 -393c-195 0 -352 69 -454 184l99 103c87 -90 214 -143 352 -143c174 0 323 82 323 256c0 162 -152 254 -338 254h-184v141h183c172 0 308 84 308 250
c0 151 -135 247 -311 247c-140 0 -247 -73 -309 -159l-111 95c81 119 226 208 429 208z" />
    <glyph glyph-name="four" unicode="4" horiz-adv-x="1152" 
d="M860 830v-390h239v-146h-239v-294h-154v294h-654v119l523 986h175l-513 -959h469v390h154z" />
    <glyph glyph-name="five" unicode="5" horiz-adv-x="1156" 
d="M974 1400v-146h-618l-13 -414h206c330 0 489 -188 489 -412c0 -286 -214 -447 -479 -447c-197 0 -356 74 -474 218l103 100c91 -109 229 -171 371 -171c206 0 319 129 319 287c0 153 -101 279 -376 279h-305l18 706h759z" />
    <glyph glyph-name="six" unicode="6" horiz-adv-x="1157" 
d="M788 1400l-363 -547c44 23 101 40 177 40c261 0 470 -195 470 -456c0 -260 -211 -455 -496 -455s-497 195 -497 455c0 109 37 205 104 310l417 653h188zM576 750c-194 0 -337 -130 -338 -313c0 -182 144 -312 338 -312s337 130 337 312c0 183 -143 313 -337 313z" />
    <glyph glyph-name="seven" unicode="7" horiz-adv-x="1095" 
d="M1029 1400v-121l-633 -1279h-180l627 1254h-764v146h950z" />
    <glyph glyph-name="eight" unicode="8" horiz-adv-x="1261" 
d="M630 1418c267 0 486 -140 486 -383c0 -172 -107 -276 -244 -328c153 -51 277 -155 277 -334c0 -250 -233 -392 -519 -392s-519 142 -519 392c0 179 124 283 277 334c-137 52 -244 156 -244 328c0 243 219 383 486 383zM630 638c-196 0 -356 -89 -356 -256
c0 -169 161 -257 356 -257s355 88 355 257c0 167 -160 256 -355 256zM630 1274c-177 0 -323 -86 -323 -247c0 -168 146 -254 323 -254s323 86 323 254c0 161 -146 247 -323 247z" />
    <glyph glyph-name="nine" unicode="9" horiz-adv-x="1157" 
d="M369 0l342 529c-45 -15 -94 -22 -144 -22c-277 0 -482 195 -482 456c0 260 210 455 496 455c285 0 497 -195 497 -455c0 -109 -37 -205 -104 -310l-417 -653h-188zM581 650c194 0 337 130 337 313c0 182 -143 312 -337 312s-337 -131 -337 -312c0 -182 143 -313 337 -313
z" />
    <glyph glyph-name="colon" unicode=":" horiz-adv-x="523" 
d="M262 966c67 0 125 -57 125 -125c0 -67 -58 -126 -125 -126s-125 59 -125 126c0 68 58 125 125 125zM262 233c67 0 125 -58 125 -125s-58 -126 -125 -126s-125 59 -125 126s58 125 125 125z" />
    <glyph glyph-name="semicolon" unicode=";" horiz-adv-x="494" 
d="M257 966c67 0 125 -57 125 -125c0 -67 -58 -126 -125 -126s-125 59 -125 126c0 68 58 125 125 125zM187 248h174l-105 -507h-129z" />
    <glyph glyph-name="less" unicode="&#x3c;" horiz-adv-x="1200" 
d="M994 243v-159l-787 372v147l787 372v-159l-636 -286z" />
    <glyph glyph-name="equal" unicode="=" horiz-adv-x="1200" 
d="M1035 412v-136h-870v136h870zM1035 782v-136h-870v136h870z" />
    <glyph glyph-name="greater" unicode="&#x3e;" horiz-adv-x="1200" 
d="M207 816v159l787 -372v-147l-787 -372v159l636 286z" />
    <glyph glyph-name="question" unicode="?" horiz-adv-x="864" 
d="M345 445h-135v314h64c228 0 364 97 364 261c0 154 -139 247 -358 247c-49 0 -99 -4 -137 -7l-13 153c44 6 108 11 158 11c317 0 516 -157 516 -397c0 -231 -164 -377 -451 -407zM278 232c66 0 124 -58 124 -125s-58 -126 -124 -126c-67 0 -126 59 -126 126
s59 125 126 125z" />
    <glyph glyph-name="at" unicode="@" horiz-adv-x="1976" 
d="M1365 884v-462c0 -145 40 -207 119 -207c107 0 186 106 186 319c0 386 -293 652 -683 652c-389 0 -682 -289 -682 -686c0 -402 293 -693 682 -693c161 0 307 50 432 136l70 -96c-145 -106 -317 -160 -502 -160c-471 0 -818 351 -818 813c0 457 347 806 818 806
c472 0 819 -328 819 -772c0 -249 -122 -437 -329 -437c-125 0 -197 62 -225 149c-61 -86 -158 -145 -295 -145c-216 0 -384 169 -384 399s168 399 384 399c128 0 221 -54 281 -134v119h127zM974 778c-160 0 -269 -122 -269 -278s109 -278 269 -278c158 0 270 119 270 278
s-112 278 -270 278z" />
    <glyph glyph-name="A" unicode="A" horiz-adv-x="1421" 
d="M810 1400l575 -1400h-172l-159 390h-693l-158 -390h-167l575 1400h199zM708 1241l-285 -699h570z" />
    <glyph glyph-name="B" unicode="B" horiz-adv-x="1402" 
d="M202 1400h542c294 0 506 -103 506 -369c0 -158 -85 -266 -211 -310c140 -46 241 -158 241 -332c0 -272 -200 -389 -510 -389h-568v1400zM763 635h-400v-484h400c210 0 348 55 348 243c0 186 -138 241 -348 241zM738 1249h-375v-464h376c193 0 342 46 342 234
c0 183 -150 230 -343 230z" />
    <glyph glyph-name="C" unicode="C" horiz-adv-x="1530" 
d="M844 1420c244 0 461 -110 571 -290l-134 -90c-92 139 -252 225 -437 225c-314 0 -554 -228 -554 -565s240 -565 554 -565c185 0 343 84 437 224l130 -96c-116 -175 -326 -283 -567 -283c-416 0 -723 300 -723 720s307 720 723 720z" />
    <glyph glyph-name="D" unicode="D" horiz-adv-x="1598" 
d="M202 1400h527c457 0 747 -273 747 -700s-290 -700 -747 -700h-527v1400zM729 1248h-366v-1096h366c379 0 578 220 578 548c0 330 -199 548 -578 548z" />
    <glyph glyph-name="E" unicode="E" horiz-adv-x="1348" 
d="M1187 151v-151h-985v1400h976v-151h-815v-469h790v-150h-790v-479h824z" />
    <glyph glyph-name="F" unicode="F" horiz-adv-x="1292" 
d="M1133 781v-152h-770v-629h-161v1400h969v-152h-808v-467h770z" />
    <glyph glyph-name="G" unicode="G" horiz-adv-x="1639" 
d="M844 1420c222 0 415 -88 543 -235l-119 -114c-99 120 -250 194 -424 194c-314 0 -554 -228 -554 -565s240 -565 547 -565c296 0 479 176 504 463h-436v150h610c1 -14 2 -28 2 -41c0 -408 -258 -726 -680 -726c-368 0 -716 266 -716 719c0 421 310 720 723 720z" />
    <glyph glyph-name="H" unicode="H" horiz-adv-x="1573" 
d="M363 1400v-619h847v619h161v-1400h-161v629h-847v-629h-161v1400h161z" />
    <glyph glyph-name="I" unicode="I" horiz-adv-x="565" 
d="M363 1400v-1400h-161v1400h161z" />
    <glyph glyph-name="J" unicode="J" horiz-adv-x="1150" 
d="M958 1400v-901c0 -334 -209 -518 -486 -518c-224 0 -355 104 -432 197l108 110c66 -83 171 -153 323 -153c196 0 327 129 327 380v885h160z" />
    <glyph glyph-name="K" unicode="K" horiz-adv-x="1388" 
d="M1145 0l-616 628h-166v-628h-161v1400h161v-620h169l581 620h208l-658 -687l701 -713h-219z" />
    <glyph glyph-name="L" unicode="L" horiz-adv-x="1213" 
d="M1173 152v-152h-971v1400h161v-1248h810z" />
    <glyph glyph-name="M" unicode="M" horiz-adv-x="1870" 
d="M1668 1400v-1400h-161v1220l-488 -1065h-169l-487 1057v-1212h-161v1400h244l489 -1058l488 1058h245z" />
    <glyph glyph-name="N" unicode="N" horiz-adv-x="1577" 
d="M1375 1400v-1400h-145l-867 1124v-1124h-161v1400h145l867 -1124v1124h161z" />
    <glyph glyph-name="O" unicode="O" horiz-adv-x="1689" 
d="M844 1420c417 0 723 -300 723 -720s-306 -720 -723 -720c-416 0 -723 300 -723 720s307 720 723 720zM844 1265c-314 0 -554 -228 -554 -565s240 -565 554 -565c315 0 555 228 555 565s-240 565 -555 565z" />
    <glyph glyph-name="P" unicode="P" horiz-adv-x="1328" 
d="M731 563h-368v-563h-161v1400h529c314 0 495 -157 495 -419s-181 -418 -495 -418zM726 1248h-363v-534h363c216 0 333 89 333 267s-117 267 -333 267z" />
    <glyph glyph-name="Q" unicode="Q" horiz-adv-x="1689" 
d="M844 1420c417 0 723 -300 723 -720c0 -181 -58 -340 -156 -461l185 -239h-189l-105 131c-122 -96 -281 -151 -458 -151c-416 0 -723 300 -723 720s307 720 723 720zM844 1265c-314 0 -554 -228 -554 -565s240 -565 554 -565c139 0 264 44 359 123l-324 415h192l235 -300
c59 89 93 200 93 327c0 337 -240 565 -555 565z" />
    <glyph glyph-name="R" unicode="R" horiz-adv-x="1353" 
d="M202 1400h549c315 0 489 -142 489 -395c0 -242 -188 -396 -487 -396h-23l503 -609h-200l-493 609h-177v-609h-161v1400zM749 1249h-386v-494h386c213 0 324 87 324 250c0 162 -114 244 -324 244z" />
    <glyph glyph-name="S" unicode="S" horiz-adv-x="1346" 
d="M1198 1265l-82 -130c-113 77 -254 131 -422 131c-211 0 -362 -95 -362 -253c0 -130 105 -201 323 -227l133 -16c231 -28 437 -126 437 -368c0 -277 -252 -421 -554 -421c-203 0 -418 72 -550 180l88 128c97 -82 279 -156 461 -156c217 0 388 88 388 255
c0 136 -117 204 -339 229l-141 16c-239 27 -413 138 -413 370c0 266 237 415 530 415c213 0 374 -63 503 -153z" />
    <glyph glyph-name="T" unicode="T" horiz-adv-x="1212" 
d="M1172 1400v-152h-486v-1248h-160v1248h-486v152h1132z" />
    <glyph glyph-name="U" unicode="U" horiz-adv-x="1517" 
d="M1335 1400v-852c0 -380 -257 -567 -577 -567s-576 187 -576 567v852h160v-840c0 -293 177 -425 416 -425s416 132 416 425v840h161z" />
    <glyph glyph-name="V" unicode="V" horiz-adv-x="1394" 
d="M1358 1400l-561 -1400h-199l-562 1400h171l492 -1240l493 1240h166z" />
    <glyph glyph-name="W" unicode="W" horiz-adv-x="2197" 
d="M2139 1400l-455 -1400h-198l-388 1186l-388 -1186h-197l-455 1400h168l387 -1218l396 1218h182l395 -1219l388 1219h165z" />
    <glyph glyph-name="X" unicode="X" horiz-adv-x="1367" 
d="M1284 1400l-502 -684l525 -716h-194l-431 593l-432 -593h-190l525 716l-501 684h194l407 -561l408 561h191z" />
    <glyph glyph-name="Y" unicode="Y" horiz-adv-x="1287" 
d="M1276 1400l-551 -813v-587h-160v589l-554 811h192l443 -664l443 664h187z" />
    <glyph glyph-name="Z" unicode="Z" horiz-adv-x="1314" 
d="M1190 1400v-124l-855 -1124h858v-152h-1072v124l856 1124h-846v152h1059z" />
    <glyph glyph-name="bracketleft" unicode="[" horiz-adv-x="752" 
d="M671 -125v-138h-469v1663h469v-138h-315v-1387h315z" />
    <glyph glyph-name="backslash" unicode="\" horiz-adv-x="992" 
d="M836 -200l-849 1740h165l849 -1740h-165z" />
    <glyph glyph-name="bracketright" unicode="]" horiz-adv-x="752" 
d="M81 1262v138h469v-1663h-469v138h315v1387h-315z" />
    <glyph glyph-name="asciicircum" unicode="^" horiz-adv-x="1200" 
d="M329 648h-158l356 752h146l356 -752h-162l-269 596z" />
    <glyph glyph-name="underscore" unicode="_" horiz-adv-x="937" 
d="M942 -136v-136h-947v136h947z" />
    <glyph glyph-name="grave" unicode="`" horiz-adv-x="939" 
d="M669 1092h-147l-251 300h189z" />
    <glyph glyph-name="a" unicode="a" horiz-adv-x="1246" 
d="M1071 947v-947h-149v141c-75 -97 -190 -160 -346 -160c-266 0 -473 208 -473 493c0 284 207 492 473 492c156 0 271 -64 346 -160v141h149zM594 826c-203 0 -339 -157 -339 -352c0 -196 138 -353 339 -353c197 0 337 152 337 353c0 200 -140 352 -337 352z" />
    <glyph glyph-name="b" unicode="b" horiz-adv-x="1246" 
d="M670 966c266 0 473 -208 473 -492c0 -285 -207 -493 -473 -493c-156 0 -270 63 -345 159v-140h-150v1440h150v-633c75 96 189 159 345 159zM652 826c-198 0 -337 -152 -337 -352c0 -201 139 -353 337 -353c203 0 338 157 338 353c0 195 -137 352 -338 352z" />
    <glyph glyph-name="c" unicode="c" horiz-adv-x="1024" 
d="M593 966c140 0 266 -52 351 -149l-96 -101c-71 69 -156 110 -259 110c-190 0 -334 -148 -334 -352c0 -205 144 -353 334 -353c103 0 195 46 262 111l93 -102c-86 -97 -211 -149 -351 -149c-291 0 -490 212 -490 493c0 280 199 492 490 492z" />
    <glyph glyph-name="d" unicode="d" horiz-adv-x="1246" 
d="M576 966c156 0 271 -64 346 -160v634h149v-1440h-149v141c-75 -97 -190 -160 -346 -160c-266 0 -473 208 -473 493c0 284 207 492 473 492zM594 826c-203 0 -339 -157 -339 -352c0 -196 138 -353 339 -353c197 0 337 152 337 353c0 200 -140 352 -337 352z" />
    <glyph glyph-name="e" unicode="e" horiz-adv-x="1121" 
d="M573 966c257 0 443 -201 445 -489c0 -19 -1 -39 -3 -56h-759c21 -204 164 -309 335 -309c117 0 219 45 300 119l80 -102c-118 -113 -250 -148 -389 -148c-280 0 -479 199 -479 492c0 290 200 493 470 493zM570 833c-175 0 -288 -120 -312 -291h608
c-19 177 -135 291 -296 291z" />
    <glyph glyph-name="f" unicode="f" horiz-adv-x="863" 
d="M796 947v-135h-377v-812h-150v812h-216v135h216v162c0 202 91 350 315 350c107 0 192 -30 259 -71l-54 -125c-51 30 -123 56 -195 56c-122 0 -175 -78 -175 -210v-162h377z" />
    <glyph glyph-name="g" unicode="g" horiz-adv-x="1235" 
d="M572 966c153 0 266 -63 338 -161v142h150v-882c0 -309 -208 -480 -501 -480c-151 0 -303 47 -399 127l66 120c90 -68 205 -111 333 -111c205 0 351 117 351 338v97c-72 -99 -185 -161 -338 -161c-266 0 -469 199 -469 486c0 286 203 485 469 485zM589 826
c-201 0 -334 -154 -334 -345c0 -192 133 -346 334 -346c195 0 334 149 334 346c0 195 -139 345 -334 345z" />
    <glyph glyph-name="h" unicode="h" horiz-adv-x="1201" 
d="M325 1440v-625c78 110 202 151 317 151c234 0 395 -150 395 -379v-587h-149v538c0 180 -100 286 -273 286c-159 0 -290 -110 -290 -290v-534h-150v1440h150z" />
    <glyph glyph-name="i" unicode="i" horiz-adv-x="500" 
d="M325 947v-947h-150v947h150zM250 1389c59 0 106 -46 106 -106s-47 -105 -106 -105c-60 0 -105 45 -105 105s45 106 105 106z" />
    <glyph glyph-name="j" unicode="j" horiz-adv-x="504" 
d="M329 947v-1103c0 -168 -93 -259 -236 -259c-49 0 -102 13 -136 32l36 129c24 -12 55 -20 87 -20c61 0 99 38 99 125v1096h150zM253 1389c59 0 106 -46 106 -106s-47 -105 -106 -105c-60 0 -105 45 -105 105s45 106 105 106z" />
    <glyph glyph-name="k" unicode="k" horiz-adv-x="1058" 
d="M325 1440v-877h137l365 384h187l-430 -446l437 -501h-189l-371 427h-136v-427h-150v1440h150z" />
    <glyph glyph-name="l" unicode="l" horiz-adv-x="500" 
d="M325 1440v-1440h-150v1440h150z" />
    <glyph glyph-name="m" unicode="m" horiz-adv-x="1914" 
d="M1354 966c235 0 396 -150 396 -379v-587h-149v538c0 180 -100 286 -274 286c-159 0 -290 -110 -290 -290v-534h-149v538c0 180 -100 286 -273 286c-159 0 -290 -110 -290 -290v-534h-150v947h148v-135c77 113 203 154 319 154c165 0 294 -75 355 -199
c76 147 224 199 357 199z" />
    <glyph glyph-name="n" unicode="n" horiz-adv-x="1201" 
d="M642 966c234 0 395 -150 395 -379v-587h-149v538c0 180 -100 286 -273 286c-159 0 -290 -110 -290 -290v-534h-150v947h148v-135c77 113 203 154 319 154z" />
    <glyph glyph-name="o" unicode="o" horiz-adv-x="1203" 
d="M601 966c285 0 499 -212 499 -492c0 -281 -214 -493 -499 -493s-498 212 -498 493c0 280 213 492 498 492zM601 826c-197 0 -346 -148 -346 -352c0 -205 149 -353 346 -353c196 0 346 148 346 353c0 204 -150 352 -346 352z" />
    <glyph glyph-name="p" unicode="p" horiz-adv-x="1246" 
d="M670 966c266 0 473 -208 473 -492c0 -285 -207 -493 -473 -493c-156 0 -270 63 -345 159v-540h-150v1347h150v-140c75 96 189 159 345 159zM652 826c-198 0 -337 -152 -337 -352c0 -201 139 -353 337 -353c203 0 338 157 338 353c0 195 -137 352 -338 352z" />
    <glyph glyph-name="q" unicode="q" horiz-adv-x="1246" 
d="M576 966c156 0 271 -64 346 -160v141h149v-1347h-149v541c-75 -97 -190 -160 -346 -160c-266 0 -473 208 -473 493c0 284 207 492 473 492zM594 826c-203 0 -339 -157 -339 -352c0 -196 138 -353 339 -353c197 0 337 152 337 353c0 200 -140 352 -337 352z" />
    <glyph glyph-name="r" unicode="r" horiz-adv-x="830" 
d="M604 966c68 0 124 -9 174 -32l-36 -147c-46 25 -109 38 -164 38c-148 0 -254 -116 -254 -295v-530h-149v947h148v-133c65 97 165 152 281 152z" />
    <glyph glyph-name="s" unicode="s" horiz-adv-x="987" 
d="M876 862l-65 -116c-61 42 -182 89 -310 89c-135 0 -224 -57 -224 -149c0 -79 69 -118 193 -133l112 -14c201 -26 318 -109 318 -264c0 -180 -162 -293 -417 -293c-122 0 -275 30 -395 121l69 112c72 -56 168 -103 328 -103s261 53 261 153c0 76 -64 122 -198 138l-113 13
c-213 26 -313 121 -313 262c0 179 151 287 378 287c149 0 285 -42 376 -103z" />
    <glyph glyph-name="t" unicode="t" horiz-adv-x="906" 
d="M818 947v-135h-409v-478c0 -148 78 -213 188 -213c73 0 144 27 199 67l70 -113c-71 -54 -165 -94 -281 -94c-204 0 -325 112 -325 350v481h-207v135h207v301h149v-301h409z" />
    <glyph glyph-name="u" unicode="u" horiz-adv-x="1188" 
d="M1024 947v-552c0 -281 -202 -414 -430 -414c-229 0 -430 133 -430 414v552h149v-538c0 -196 119 -288 281 -288s280 92 280 288v538h150z" />
    <glyph glyph-name="v" unicode="v" horiz-adv-x="1042" 
d="M1012 947l-403 -949h-175l-404 949h162l331 -797l331 797h158z" />
    <glyph glyph-name="w" unicode="w" horiz-adv-x="1706" 
d="M937 947l284 -792l285 792h155l-350 -947h-177l-283 787l-282 -787h-174l-350 947h159l283 -791l282 791h168z" />
    <glyph glyph-name="x" unicode="x" horiz-adv-x="1023" 
d="M977 947l-370 -462l381 -485h-183l-299 374l-296 -374h-175l380 484l-370 463h183l286 -359l287 359h176z" />
    <glyph glyph-name="y" unicode="y" horiz-adv-x="1054" 
d="M1039 947l-771 -1351h-165l353 609l-435 742h167l353 -594l334 594h164z" />
    <glyph glyph-name="z" unicode="z" horiz-adv-x="1055" 
d="M924 947v-109l-604 -703h613v-135h-811v108l610 704h-592v135h784z" />
    <glyph glyph-name="braceleft" unicode="{" horiz-adv-x="854" 
d="M773 1262h-59c-135 0 -228 -78 -219 -237l8 -134c9 -168 -66 -277 -204 -322c138 -45 213 -154 204 -322l-8 -134c-9 -159 84 -237 219 -237h59v-138h-59c-246 0 -385 142 -372 391l7 134c9 160 -84 237 -228 237v138c144 0 237 77 228 237l-7 134
c-13 249 126 391 372 391h59v-138z" />
    <glyph glyph-name="bar" unicode="|" horiz-adv-x="715" 
d="M432 1400v-1665h-149v1665h149z" />
    <glyph glyph-name="braceright" unicode="}" horiz-adv-x="854" 
d="M81 -124h59c135 0 228 78 219 237l-8 134c-9 168 66 277 204 322c-138 45 -213 154 -204 322l8 134c9 159 -84 237 -219 237h-59v138h59c246 0 385 -142 372 -391l-7 -134c-9 -160 84 -237 228 -237v-138c-144 0 -237 -77 -228 -237l7 -134c13 -249 -126 -391 -372 -391
h-59v138z" />
    <glyph glyph-name="asciitilde" unicode="~" horiz-adv-x="1200" 
d="M966 633l82 -94c-73 -79 -150 -118 -264 -118c-186 0 -228 86 -379 86c-65 0 -114 -28 -172 -83l-81 94c72 79 149 118 263 118c187 0 228 -86 379 -86c65 0 114 28 172 83z" />
    <glyph glyph-name="uni00A0" unicode="&#xa0;" horiz-adv-x="534" 
 />
    <glyph glyph-name="exclamdown" unicode="&#xa1;" horiz-adv-x="524" 
d="M171 -453l24 955h135l24 -955h-183zM262 714c-67 0 -125 58 -125 125s58 126 125 126s125 -59 125 -126s-58 -125 -125 -125z" />
    <glyph glyph-name="cent" unicode="&#xa2;" horiz-adv-x="1400" 
d="M679 1400h138v-211c127 -9 241 -60 320 -146l-88 -97c-66 60 -142 98 -232 107v-707c92 11 174 52 236 109l84 -98c-81 -87 -194 -138 -320 -147v-210h-138v216c-250 40 -414 235 -414 484s164 443 414 483v217zM412 700c0 -174 110 -307 267 -345v690
c-157 -38 -267 -171 -267 -345z" />
    <glyph glyph-name="sterling" unicode="&#xa3;" horiz-adv-x="1400" 
d="M1216 147v-147h-1032v147h179v485h-179v136h179v137c0 342 213 513 470 513c148 0 278 -54 367 -162l-113 -100c-61 77 -149 115 -254 115c-180 0 -316 -117 -316 -377v-126h528v-136h-528v-485h699z" />
    <glyph glyph-name="currency" unicode="&#xa4;" horiz-adv-x="1400" 
d="M205 1108l87 88l146 -145c73 54 164 87 264 87c98 0 190 -32 263 -87l143 145l88 -88l-144 -144c56 -74 89 -165 89 -264c0 -100 -33 -191 -88 -265l144 -143l-88 -88l-144 144c-73 -55 -164 -87 -263 -87c-100 0 -192 33 -265 88l-144 -145l-87 88l144 144
c-55 73 -88 164 -88 264c0 99 32 190 87 263zM702 383c175 0 315 140 315 317c0 176 -140 316 -315 316c-177 0 -316 -140 -316 -316c0 -177 139 -317 316 -317z" />
    <glyph glyph-name="yen" unicode="&#xa5;" horiz-adv-x="1400" 
d="M1179 440v-123h-397v-317h-154v317h-397v123h397v197h-397v123h330l-454 640h184l414 -593l408 593h181l-448 -640h333v-123h-397v-197h397z" />
    <glyph glyph-name="brokenbar" unicode="&#xa6;" horiz-adv-x="715" 
d="M432 1400v-694h-149v694h149zM432 429v-694h-149v694h149z" />
    <glyph glyph-name="section" unicode="&#xa7;" horiz-adv-x="1309" 
d="M1130 1282l-73 -122c-98 66 -230 119 -378 119c-190 0 -328 -78 -328 -206c0 -111 108 -165 302 -187l116 -13c210 -24 395 -112 395 -312c0 -114 -62 -200 -159 -257c83 -50 138 -126 138 -234c0 -242 -230 -361 -500 -361c-192 0 -379 65 -498 157l80 121
c90 -71 243 -138 418 -138c195 0 347 69 348 209c0 112 -126 166 -310 186l-126 14c-212 25 -377 117 -377 314c0 110 59 196 154 253c-82 51 -134 128 -134 238c0 224 213 355 480 355c188 0 337 -58 452 -136zM577 749c-37 4 -73 11 -107 19c-87 -35 -140 -100 -140 -186
c0 -111 109 -165 302 -187l118 -13c41 -5 81 -12 119 -22c87 34 143 98 143 189c0 111 -127 165 -310 186z" />
    <glyph glyph-name="dieresis" unicode="&#xa8;" horiz-adv-x="953" 
d="M273 1343c59 0 106 -47 106 -107s-47 -105 -106 -105c-60 0 -106 45 -106 105s46 107 106 107zM679 1343c59 0 106 -47 106 -107s-47 -105 -106 -105c-60 0 -105 45 -105 105s45 107 105 107z" />
    <glyph glyph-name="copyright" unicode="&#xa9;" horiz-adv-x="1903" 
d="M951 1508c445 0 806 -359 806 -800c0 -442 -361 -802 -806 -802c-446 0 -806 360 -806 802c0 441 360 800 806 800zM951 1376c-371 0 -670 -298 -670 -668c0 -371 299 -670 670 -670c370 0 670 299 670 670c0 370 -300 668 -670 668zM1314 959l-111 -75
c-51 76 -134 122 -232 122c-160 0 -284 -123 -284 -298c0 -187 130 -299 284 -299c98 0 182 47 234 122l105 -82c-73 -105 -193 -170 -338 -170c-243 0 -426 178 -426 429s183 429 426 429c144 0 271 -67 342 -178z" />
    <glyph glyph-name="ordfeminine" unicode="&#xaa;" horiz-adv-x="785" 
d="M373 1292c178 0 294 -91 294 -279v-396h-121v89c-52 -58 -130 -103 -233 -103c-145 0 -234 85 -234 205s100 197 273 197h191c-2 121 -68 177 -184 177c-83 0 -149 -33 -197 -71l-49 95c69 53 156 86 260 86zM341 705c81 0 154 42 204 100v113h-175
c-116 0 -162 -49 -162 -107c0 -57 46 -106 133 -106z" />
    <glyph glyph-name="guillemotleft" unicode="&#xab;" horiz-adv-x="1021" 
d="M683 529l191 -370h-160l-192 370l192 370h160zM287 529l191 -370h-160l-192 370l192 370h160z" />
    <glyph glyph-name="logicalnot" unicode="&#xac;" horiz-adv-x="1200" 
d="M1035 597v-450h-138v314h-732v136h870z" />
    <glyph glyph-name="uni00AD" unicode="&#xad;" horiz-adv-x="838" 
d="M697 597v-136h-556v136h556z" />
    <glyph glyph-name="registered" unicode="&#xae;" horiz-adv-x="930" 
d="M466 1435c230 0 415 -183 415 -408c0 -223 -186 -408 -415 -408c-235 0 -418 185 -418 408c0 225 183 408 418 408zM466 709c175 0 315 142 315 318c0 177 -140 317 -315 317c-179 0 -319 -140 -319 -317c0 -176 140 -318 319 -318zM490 1218c97 0 152 -47 152 -121
c0 -62 -44 -106 -121 -115l124 -143h-97l-115 142h-37v-142h-81v379h175zM489 1147h-93v-101h93c43 0 70 17 70 51c0 33 -27 50 -70 50z" />
    <glyph glyph-name="macron" unicode="&#xaf;" horiz-adv-x="939" 
d="M171 1175v121h598v-121h-598z" />
    <glyph glyph-name="degree" unicode="&#xb0;" horiz-adv-x="795" 
d="M397 728c-193 0 -349 154 -349 346c0 191 156 345 349 345c192 0 349 -154 349 -345c0 -192 -157 -346 -349 -346zM397 850c119 0 220 99 220 224c0 124 -101 223 -220 223c-121 0 -221 -99 -221 -223c0 -125 100 -224 221 -224z" />
    <glyph glyph-name="plusminus" unicode="&#xb1;" horiz-adv-x="1200" 
d="M668 293h-139v303h-364v135h364v348h139v-348h367v-135h-367v-303zM1035 181v-136h-870v136h870z" />
    <glyph glyph-name="twosuperior" unicode="&#xb2;" horiz-adv-x="681" 
d="M145 1200l-80 77c43 59 121 133 262 133c163 0 260 -102 260 -244c0 -95 -46 -162 -115 -231l-201 -203h340v-115h-517v97l291 291c45 45 74 93 74 151c0 78 -54 136 -143 136c-82 0 -132 -44 -171 -92z" />
    <glyph glyph-name="threesuperior" unicode="&#xb3;" horiz-adv-x="685" 
d="M308 1410c162 0 274 -87 274 -216c0 -89 -50 -152 -128 -183c88 -30 145 -95 145 -182c0 -151 -139 -223 -285 -223c-114 0 -204 39 -264 106l72 82c47 -49 112 -77 186 -77c88 0 163 39 163 122c0 76 -78 118 -171 118h-100v110h100c87 0 154 40 154 117
c0 71 -63 115 -152 115c-78 0 -137 -38 -174 -83l-74 79c53 67 135 115 254 115z" />
    <glyph glyph-name="acute" unicode="&#xb4;" horiz-adv-x="939" 
d="M418 1092h-147l209 300h189z" />
    <glyph glyph-name="mu" unicode="&#xb5;" horiz-adv-x="1201" 
d="M312 -400h-148v1347h149v-538c0 -180 100 -286 273 -286c159 0 290 110 290 290v534h150v-947h-148v135c-77 -113 -203 -154 -319 -154c-97 0 -191 33 -247 93v-474z" />
    <glyph glyph-name="paragraph" unicode="&#xb6;" horiz-adv-x="1172" 
d="M547 0v705c-258 1 -404 132 -404 347s146 348 404 348h119v-1400h-119zM770 0v1400h119v-1400h-119z" />
    <glyph glyph-name="periodcentered" unicode="&#xb7;" horiz-adv-x="715" 
d="M359 654c66 0 124 -57 124 -124c0 -68 -58 -126 -124 -126c-67 0 -126 58 -126 126c0 67 59 124 126 124z" />
    <glyph glyph-name="cedilla" unicode="&#xb8;" horiz-adv-x="988" 
d="M623 5l-103 -328h-156l109 329z" />
    <glyph glyph-name="onesuperior" unicode="&#xb9;" horiz-adv-x="550" 
d="M391 1409v-792h-124v620l-217 -87v122z" />
    <glyph glyph-name="ordmasculine" unicode="&#xba;" horiz-adv-x="856" 
d="M428 1292c200 0 349 -147 349 -344s-149 -345 -349 -345s-349 148 -349 345s149 344 349 344zM428 1177c-127 0 -223 -96 -223 -229s96 -229 223 -229s224 96 224 229s-97 229 -224 229z" />
    <glyph glyph-name="guillemotright" unicode="&#xbb;" horiz-adv-x="1021" 
d="M338 529l-191 370h160l192 -370l-192 -370h-160zM734 529l-191 370h160l192 -370l-192 -370h-160z" />
    <glyph glyph-name="onequarter" unicode="&#xbc;" horiz-adv-x="1626" 
d="M1308 1400l-883 -1400h-149l883 1400h149zM1465 482v-217h121v-113h-121v-152h-124v152h-365v89l276 541h137l-267 -517h219v217h124zM391 1409v-792h-124v620l-217 -87v122z" />
    <glyph glyph-name="onehalf" unicode="&#xbd;" horiz-adv-x="1691" 
d="M1308 1400l-883 -1400h-149l883 1400h149zM1155 583l-80 77c43 59 121 133 262 133c163 0 260 -102 260 -244c0 -95 -46 -162 -115 -231l-201 -203h340v-115h-517v97l291 291c45 45 74 93 74 151c0 78 -54 136 -143 136c-82 0 -132 -44 -171 -92zM391 1409v-792h-124v620
l-217 -87v122z" />
    <glyph glyph-name="threequarters" unicode="&#xbe;" horiz-adv-x="1736" 
d="M1419 1400l-883 -1400h-149l883 1400h149zM1575 482v-217h121v-113h-121v-152h-124v152h-365v89l276 541h137l-267 -517h219v217h124zM308 1410c162 0 274 -87 274 -216c0 -89 -50 -152 -128 -183c88 -30 145 -95 145 -182c0 -151 -139 -223 -285 -223
c-114 0 -204 39 -264 106l72 82c47 -49 112 -77 186 -77c88 0 163 39 163 122c0 76 -78 118 -171 118h-100v110h100c87 0 154 40 154 117c0 71 -63 115 -152 115c-78 0 -137 -38 -174 -83l-74 79c53 67 135 115 254 115z" />
    <glyph glyph-name="questiondown" unicode="&#xbf;" horiz-adv-x="864" 
d="M519 502h135v-314h-64c-228 0 -364 -97 -364 -261c0 -154 139 -247 358 -247c49 0 99 4 137 7l13 -153c-44 -6 -108 -11 -158 -11c-317 0 -516 157 -516 397c0 231 163 377 450 406zM586 715c-66 0 -124 58 -124 125s58 126 124 126c67 0 126 -59 126 -126
s-59 -125 -126 -125z" />
    <glyph glyph-name="Agrave" unicode="&#xc0;" horiz-adv-x="1421" 
d="M810 1400l575 -1400h-172l-159 390h-693l-158 -390h-167l575 1400h199zM708 1241l-285 -699h570zM694 1507l-251 300h189l210 -300h-148z" />
    <glyph glyph-name="Aacute" unicode="&#xc1;" horiz-adv-x="1421" 
d="M810 1400l575 -1400h-172l-159 390h-693l-158 -390h-167l575 1400h199zM708 1241l-285 -699h570zM718 1507h-148l209 300h190z" />
    <glyph glyph-name="Acircumflex" unicode="&#xc2;" horiz-adv-x="1421" 
d="M810 1400l575 -1400h-172l-159 390h-693l-158 -390h-167l575 1400h199zM708 1241l-285 -699h570zM1045 1508h-160l-174 189l-175 -189h-160l235 288h200z" />
    <glyph glyph-name="Atilde" unicode="&#xc3;" horiz-adv-x="1421" 
d="M810 1400l575 -1400h-172l-159 390h-693l-158 -390h-167l575 1400h199zM708 1241l-285 -699h570zM447 1564l-88 85c60 74 124 111 219 111c135 0 181 -79 266 -79c50 0 87 22 130 67l89 -85c-60 -74 -125 -111 -219 -111c-134 0 -180 80 -266 80c-50 0 -88 -23 -131 -68z
" />
    <glyph glyph-name="Adieresis" unicode="&#xc4;" horiz-adv-x="1421" 
d="M810 1400l575 -1400h-172l-159 390h-693l-158 -390h-167l575 1400h199zM708 1241l-285 -699h570zM508 1758c59 0 106 -47 106 -107s-47 -105 -106 -105c-60 0 -106 45 -106 105s46 107 106 107zM914 1758c59 0 106 -47 106 -107s-47 -105 -106 -105
c-60 0 -105 45 -105 105s45 107 105 107z" />
    <glyph glyph-name="Aring" unicode="&#xc5;" horiz-adv-x="1421" 
d="M810 1400l575 -1400h-172l-159 390h-693l-158 -390h-167l575 1400h199zM708 1241l-285 -699h570zM711 1487c-124 0 -227 101 -227 225c0 123 103 224 227 224c125 0 228 -101 228 -224c0 -124 -103 -225 -228 -225zM711 1582c70 0 128 57 128 130c0 72 -58 129 -128 129
s-127 -57 -127 -129c0 -73 57 -130 127 -130z" />
    <glyph glyph-name="AE" unicode="&#xc6;" horiz-adv-x="2283" 
d="M2122 151v-151h-985v365h-638l-276 -365h-194l1064 1400h1020v-151h-815v-469h790v-150h-790v-479h824zM614 517h523v690z" />
    <glyph glyph-name="Ccedilla" unicode="&#xc7;" horiz-adv-x="1530" 
d="M844 1420c244 0 461 -110 571 -290l-134 -90c-92 139 -252 225 -437 225c-314 0 -554 -228 -554 -565s240 -565 554 -565c185 0 343 84 437 224l130 -96c-103 -155 -279 -258 -486 -279l-96 -307h-163l103 307c-377 33 -648 321 -648 716c0 420 307 720 723 720z" />
    <glyph glyph-name="Egrave" unicode="&#xc8;" horiz-adv-x="1348" 
d="M1187 151v-151h-985v1400h976v-151h-815v-469h790v-150h-790v-479h824zM668 1507l-251 300h189l210 -300h-148z" />
    <glyph glyph-name="Eacute" unicode="&#xc9;" horiz-adv-x="1348" 
d="M1187 151v-151h-985v1400h976v-151h-815v-469h790v-150h-790v-479h824zM692 1507h-148l209 300h190z" />
    <glyph glyph-name="Ecircumflex" unicode="&#xca;" horiz-adv-x="1348" 
d="M1187 151v-151h-985v1400h976v-151h-815v-469h790v-150h-790v-479h824zM1019 1508h-160l-174 189l-175 -189h-160l235 288h200z" />
    <glyph glyph-name="Edieresis" unicode="&#xcb;" horiz-adv-x="1348" 
d="M1187 151v-151h-985v1400h976v-151h-815v-469h790v-150h-790v-479h824zM482 1758c59 0 106 -47 106 -107s-47 -105 -106 -105c-60 0 -106 45 -106 105s46 107 106 107zM888 1758c59 0 106 -47 106 -107s-47 -105 -106 -105c-60 0 -105 45 -105 105s45 107 105 107z" />
    <glyph glyph-name="Igrave" unicode="&#xcc;" horiz-adv-x="565" 
d="M363 1400v-1400h-161v1400h161zM265 1507l-251 300h189l210 -300h-148z" />
    <glyph glyph-name="Iacute" unicode="&#xcd;" horiz-adv-x="565" 
d="M363 1400v-1400h-161v1400h161zM289 1507h-148l209 300h190z" />
    <glyph glyph-name="Icircumflex" unicode="&#xce;" horiz-adv-x="565" 
d="M363 1400v-1400h-161v1400h161zM616 1508h-160l-174 189l-175 -189h-160l235 288h200z" />
    <glyph glyph-name="Idieresis" unicode="&#xcf;" horiz-adv-x="565" 
d="M363 1400v-1400h-161v1400h161zM79 1758c59 0 106 -47 106 -107s-47 -105 -106 -105c-60 0 -106 45 -106 105s46 107 106 107zM485 1758c59 0 106 -47 106 -107s-47 -105 -106 -105c-60 0 -105 45 -105 105s45 107 105 107z" />
    <glyph glyph-name="Eth" unicode="&#xd0;" horiz-adv-x="1749" 
d="M353 1400h527c457 0 747 -273 747 -700s-290 -700 -747 -700h-527v629h-232v152h232v619zM917 781v-152h-403v-477h366c379 0 578 220 578 548c0 330 -199 548 -578 548h-366v-467h403z" />
    <glyph glyph-name="Ntilde" unicode="&#xd1;" horiz-adv-x="1577" 
d="M1375 1400v-1400h-145l-867 1124v-1124h-161v1400h145l867 -1124v1124h161zM524 1564l-88 85c60 74 124 111 219 111c135 0 181 -79 266 -79c50 0 87 22 130 67l89 -85c-60 -74 -125 -111 -219 -111c-134 0 -180 80 -266 80c-50 0 -88 -23 -131 -68z" />
    <glyph glyph-name="Ograve" unicode="&#xd2;" horiz-adv-x="1689" 
d="M844 1420c417 0 723 -300 723 -720s-306 -720 -723 -720c-416 0 -723 300 -723 720s307 720 723 720zM844 1265c-314 0 -554 -228 -554 -565s240 -565 554 -565c315 0 555 228 555 565s-240 565 -555 565zM827 1507l-251 300h189l210 -300h-148z" />
    <glyph glyph-name="Oacute" unicode="&#xd3;" horiz-adv-x="1689" 
d="M844 1420c417 0 723 -300 723 -720s-306 -720 -723 -720c-416 0 -723 300 -723 720s307 720 723 720zM844 1265c-314 0 -554 -228 -554 -565s240 -565 554 -565c315 0 555 228 555 565s-240 565 -555 565zM851 1507h-148l209 300h190z" />
    <glyph glyph-name="Ocircumflex" unicode="&#xd4;" horiz-adv-x="1689" 
d="M844 1420c417 0 723 -300 723 -720s-306 -720 -723 -720c-416 0 -723 300 -723 720s307 720 723 720zM844 1265c-314 0 -554 -228 -554 -565s240 -565 554 -565c315 0 555 228 555 565s-240 565 -555 565zM1178 1508h-160l-174 189l-175 -189h-160l235 288h200z" />
    <glyph glyph-name="Otilde" unicode="&#xd5;" horiz-adv-x="1689" 
d="M844 1420c417 0 723 -300 723 -720s-306 -720 -723 -720c-416 0 -723 300 -723 720s307 720 723 720zM844 1265c-314 0 -554 -228 -554 -565s240 -565 554 -565c315 0 555 228 555 565s-240 565 -555 565zM580 1564l-88 85c60 74 124 111 219 111c135 0 181 -79 266 -79
c50 0 87 22 130 67l89 -85c-60 -74 -125 -111 -219 -111c-134 0 -180 80 -266 80c-50 0 -88 -23 -131 -68z" />
    <glyph glyph-name="Odieresis" unicode="&#xd6;" horiz-adv-x="1689" 
d="M844 1420c417 0 723 -300 723 -720s-306 -720 -723 -720c-416 0 -723 300 -723 720s307 720 723 720zM844 1265c-314 0 -554 -228 -554 -565s240 -565 554 -565c315 0 555 228 555 565s-240 565 -555 565zM641 1758c59 0 106 -47 106 -107s-47 -105 -106 -105
c-60 0 -106 45 -106 105s46 107 106 107zM1047 1758c59 0 106 -47 106 -107s-47 -105 -106 -105c-60 0 -105 45 -105 105s45 107 105 107z" />
    <glyph glyph-name="multiply" unicode="&#xd7;" horiz-adv-x="1200" 
d="M306 139l-97 96l292 292l-293 294l99 99l293 -294l295 295l96 -96l-295 -295l296 -295l-99 -99l-296 295z" />
    <glyph glyph-name="Oslash" unicode="&#xd8;" horiz-adv-x="1689" 
d="M844 1420c179 0 338 -56 461 -153l152 152l106 -106l-152 -152c98 -122 156 -280 156 -461c0 -420 -306 -720 -723 -720c-180 0 -338 56 -461 153l-151 -151l-107 105l151 151c-98 122 -155 281 -155 462c0 420 307 720 723 720zM1399 700c0 135 -39 252 -105 344
l-796 -796c93 -73 213 -113 346 -113c315 0 555 228 555 565zM844 1265c-314 0 -554 -228 -554 -565c0 -135 38 -252 104 -344l796 796c-94 72 -213 113 -346 113z" />
    <glyph glyph-name="Ugrave" unicode="&#xd9;" horiz-adv-x="1517" 
d="M1335 1400v-852c0 -380 -257 -567 -577 -567s-576 187 -576 567v852h160v-840c0 -293 177 -425 416 -425s416 132 416 425v840h161zM741 1507l-251 300h189l210 -300h-148z" />
    <glyph glyph-name="Uacute" unicode="&#xda;" horiz-adv-x="1517" 
d="M1335 1400v-852c0 -380 -257 -567 -577 -567s-576 187 -576 567v852h160v-840c0 -293 177 -425 416 -425s416 132 416 425v840h161zM765 1507h-148l209 300h190z" />
    <glyph glyph-name="Ucircumflex" unicode="&#xdb;" horiz-adv-x="1517" 
d="M1335 1400v-852c0 -380 -257 -567 -577 -567s-576 187 -576 567v852h160v-840c0 -293 177 -425 416 -425s416 132 416 425v840h161zM1092 1508h-160l-174 189l-175 -189h-160l235 288h200z" />
    <glyph glyph-name="Udieresis" unicode="&#xdc;" horiz-adv-x="1517" 
d="M1335 1400v-852c0 -380 -257 -567 -577 -567s-576 187 -576 567v852h160v-840c0 -293 177 -425 416 -425s416 132 416 425v840h161zM555 1758c59 0 106 -47 106 -107s-47 -105 -106 -105c-60 0 -106 45 -106 105s46 107 106 107zM961 1758c59 0 106 -47 106 -107
s-47 -105 -106 -105c-60 0 -105 45 -105 105s45 107 105 107z" />
    <glyph glyph-name="Yacute" unicode="&#xdd;" horiz-adv-x="1287" 
d="M1276 1400l-551 -813v-587h-160v589l-554 811h192l443 -664l443 664h187zM653 1507h-148l209 300h190z" />
    <glyph glyph-name="Thorn" unicode="&#xde;" horiz-adv-x="1328" 
d="M363 1400v-266h368c314 0 495 -157 495 -419s-181 -419 -495 -419h-368v-296h-161v1400h161zM726 982h-363v-534h363c216 0 333 89 333 267s-117 267 -333 267z" />
    <glyph glyph-name="germandbls" unicode="&#xdf;" horiz-adv-x="1225" 
d="M166 0v1021c0 243 152 438 460 438c252 0 455 -153 455 -384c0 -174 -96 -290 -215 -339c140 -44 256 -173 256 -347c0 -255 -190 -408 -422 -408c-104 0 -174 16 -236 42l36 135c51 -23 108 -38 177 -38c175 0 292 95 292 274c0 181 -138 265 -341 265h-56v136h31
c169 0 325 59 325 258c0 177 -138 266 -305 266c-190 0 -308 -120 -308 -307v-1012h-149z" />
    <glyph glyph-name="agrave" unicode="&#xe0;" horiz-adv-x="1246" 
d="M1071 947v-947h-149v141c-75 -97 -190 -160 -346 -160c-266 0 -473 208 -473 493c0 284 207 492 473 492c156 0 271 -64 346 -160v141h149zM594 826c-203 0 -339 -157 -339 -352c0 -196 138 -353 339 -353c197 0 337 152 337 353c0 200 -140 352 -337 352zM581 1092
l-251 300h189l210 -300h-148z" />
    <glyph glyph-name="aacute" unicode="&#xe1;" horiz-adv-x="1246" 
d="M1071 947v-947h-149v141c-75 -97 -190 -160 -346 -160c-266 0 -473 208 -473 493c0 284 207 492 473 492c156 0 271 -64 346 -160v141h149zM594 826c-203 0 -339 -157 -339 -352c0 -196 138 -353 339 -353c197 0 337 152 337 353c0 200 -140 352 -337 352zM629 1092h-148
l209 300h190z" />
    <glyph glyph-name="acircumflex" unicode="&#xe2;" horiz-adv-x="1246" 
d="M1071 947v-947h-149v141c-75 -97 -190 -160 -346 -160c-266 0 -473 208 -473 493c0 284 207 492 473 492c156 0 271 -64 346 -160v141h149zM594 826c-203 0 -339 -157 -339 -352c0 -196 138 -353 339 -353c197 0 337 152 337 353c0 200 -140 352 -337 352zM945 1093h-160
l-174 189l-175 -189h-160l235 288h200z" />
    <glyph glyph-name="atilde" unicode="&#xe3;" horiz-adv-x="1246" 
d="M1071 947v-947h-149v141c-75 -97 -190 -160 -346 -160c-266 0 -473 208 -473 493c0 284 207 492 473 492c156 0 271 -64 346 -160v141h149zM594 826c-203 0 -339 -157 -339 -352c0 -196 138 -353 339 -353c197 0 337 152 337 353c0 200 -140 352 -337 352zM355 1149
l-88 85c60 74 124 111 219 111c135 0 181 -79 266 -79c50 0 87 22 130 67l89 -85c-60 -74 -125 -111 -219 -111c-134 0 -180 80 -266 80c-50 0 -88 -23 -131 -68z" />
    <glyph glyph-name="adieresis" unicode="&#xe4;" horiz-adv-x="1246" 
d="M1071 947v-947h-149v141c-75 -97 -190 -160 -346 -160c-266 0 -473 208 -473 493c0 284 207 492 473 492c156 0 271 -64 346 -160v141h149zM594 826c-203 0 -339 -157 -339 -352c0 -196 138 -353 339 -353c197 0 337 152 337 353c0 200 -140 352 -337 352zM408 1343
c59 0 106 -47 106 -107s-47 -105 -106 -105c-60 0 -106 45 -106 105s46 107 106 107zM814 1343c59 0 106 -47 106 -107s-47 -105 -106 -105c-60 0 -105 45 -105 105s45 107 105 107z" />
    <glyph glyph-name="aring" unicode="&#xe5;" horiz-adv-x="1246" 
d="M1071 947v-947h-149v141c-75 -97 -190 -160 -346 -160c-266 0 -473 208 -473 493c0 284 207 492 473 492c156 0 271 -64 346 -160v141h149zM594 826c-203 0 -339 -157 -339 -352c0 -196 138 -353 339 -353c197 0 337 152 337 353c0 200 -140 352 -337 352zM610 1072
c-124 0 -227 101 -227 225c0 123 103 224 227 224c125 0 228 -101 228 -224c0 -124 -103 -225 -228 -225zM610 1167c70 0 128 57 128 130c0 72 -58 129 -128 129s-127 -57 -127 -129c0 -73 57 -130 127 -130z" />
    <glyph glyph-name="ae" unicode="&#xe6;" horiz-adv-x="1800" 
d="M1252 965c257 0 442 -200 445 -488c0 -20 -2 -39 -3 -56h-759c21 -204 163 -309 335 -309c117 0 220 46 300 119l79 -102c-117 -113 -249 -148 -388 -148c-166 0 -303 69 -388 186c-86 -105 -220 -186 -403 -186c-230 0 -367 119 -367 285c0 163 137 279 390 279h290v7
c0 190 -102 279 -282 279c-115 0 -206 -45 -274 -95l-70 111c106 80 229 119 363 119c171 0 300 -58 360 -199c76 121 215 198 372 198zM493 113c118 0 243 61 322 163c-17 45 -27 93 -32 145h-274c-181 0 -247 -70 -247 -155c0 -84 79 -153 231 -153zM1249 833
c-175 0 -288 -121 -312 -291h607c-18 176 -135 291 -295 291z" />
    <glyph glyph-name="ccedilla" unicode="&#xe7;" horiz-adv-x="1024" 
d="M593 966c140 0 266 -52 351 -149l-96 -101c-71 69 -156 110 -259 110c-190 0 -334 -148 -334 -352c0 -205 144 -353 334 -353c103 0 195 46 262 111l93 -102c-73 -83 -175 -132 -290 -145l-96 -308h-156l103 311c-243 37 -402 234 -402 486c0 280 199 492 490 492z" />
    <glyph glyph-name="egrave" unicode="&#xe8;" horiz-adv-x="1121" 
d="M573 966c257 0 443 -201 445 -489c0 -19 -1 -39 -3 -56h-759c21 -204 164 -309 335 -309c117 0 219 45 300 119l80 -102c-118 -113 -250 -148 -389 -148c-280 0 -479 199 -479 492c0 290 200 493 470 493zM570 833c-175 0 -288 -120 -312 -291h608
c-19 177 -135 291 -296 291zM539 1092l-251 300h189l210 -300h-148z" />
    <glyph glyph-name="eacute" unicode="&#xe9;" horiz-adv-x="1121" 
d="M573 966c257 0 443 -201 445 -489c0 -19 -1 -39 -3 -56h-759c21 -204 164 -309 335 -309c117 0 219 45 300 119l80 -102c-118 -113 -250 -148 -389 -148c-280 0 -479 199 -479 492c0 290 200 493 470 493zM570 833c-175 0 -288 -120 -312 -291h608
c-19 177 -135 291 -296 291zM587 1092h-148l209 300h190z" />
    <glyph glyph-name="ecircumflex" unicode="&#xea;" horiz-adv-x="1121" 
d="M573 966c257 0 443 -201 445 -489c0 -19 -1 -39 -3 -56h-759c21 -204 164 -309 335 -309c117 0 219 45 300 119l80 -102c-118 -113 -250 -148 -389 -148c-280 0 -479 199 -479 492c0 290 200 493 470 493zM570 833c-175 0 -288 -120 -312 -291h608
c-19 177 -135 291 -296 291zM903 1093h-160l-174 189l-175 -189h-160l235 288h200z" />
    <glyph glyph-name="edieresis" unicode="&#xeb;" horiz-adv-x="1121" 
d="M573 966c257 0 443 -201 445 -489c0 -19 -1 -39 -3 -56h-759c21 -204 164 -309 335 -309c117 0 219 45 300 119l80 -102c-118 -113 -250 -148 -389 -148c-280 0 -479 199 -479 492c0 290 200 493 470 493zM570 833c-175 0 -288 -120 -312 -291h608
c-19 177 -135 291 -296 291zM366 1343c59 0 106 -47 106 -107s-47 -105 -106 -105c-60 0 -106 45 -106 105s46 107 106 107zM772 1343c59 0 106 -47 106 -107s-47 -105 -106 -105c-60 0 -105 45 -105 105s45 107 105 107z" />
    <glyph glyph-name="igrave" unicode="&#xec;" horiz-adv-x="500" 
d="M325 947v-947h-150v947h150zM220 1092l-251 300h189l210 -300h-148z" />
    <glyph glyph-name="iacute" unicode="&#xed;" horiz-adv-x="500" 
d="M325 947v-947h-150v947h150zM268 1092h-148l209 300h190z" />
    <glyph glyph-name="icircumflex" unicode="&#xee;" horiz-adv-x="500" 
d="M325 947v-947h-150v947h150zM584 1093h-160l-174 189l-175 -189h-160l235 288h200z" />
    <glyph glyph-name="idieresis" unicode="&#xef;" horiz-adv-x="500" 
d="M325 947v-947h-150v947h150zM47 1343c59 0 106 -47 106 -107s-47 -105 -106 -105c-60 0 -106 45 -106 105s46 107 106 107zM453 1343c59 0 106 -47 106 -107s-47 -105 -106 -105c-60 0 -105 45 -105 105s45 107 105 107z" />
    <glyph glyph-name="eth" unicode="&#xf0;" horiz-adv-x="1199" 
d="M872 1434l56 -91l-197 -117c210 -182 365 -450 365 -743c0 -286 -214 -502 -495 -502c-285 0 -498 208 -498 482c0 278 205 486 470 486c123 0 230 -46 306 -125c-55 114 -145 227 -274 327l-251 -149l-56 91l211 125c-64 40 -135 78 -214 112l67 120
c105 -43 198 -95 279 -153zM601 808c-197 0 -346 -142 -346 -344c0 -200 149 -343 346 -343c196 0 346 143 346 343c0 202 -150 344 -346 344z" />
    <glyph glyph-name="ntilde" unicode="&#xf1;" horiz-adv-x="1201" 
d="M642 966c234 0 395 -150 395 -379v-587h-149v538c0 180 -100 286 -273 286c-159 0 -290 -110 -290 -290v-534h-150v947h148v-135c77 113 203 154 319 154zM361 1149l-88 85c60 74 124 111 219 111c135 0 181 -79 266 -79c50 0 87 22 130 67l89 -85
c-60 -74 -125 -111 -219 -111c-134 0 -180 80 -266 80c-50 0 -88 -23 -131 -68z" />
    <glyph glyph-name="ograve" unicode="&#xf2;" horiz-adv-x="1203" 
d="M601 966c285 0 499 -212 499 -492c0 -281 -214 -493 -499 -493s-498 212 -498 493c0 280 213 492 498 492zM601 826c-197 0 -346 -148 -346 -352c0 -205 149 -353 346 -353c196 0 346 148 346 353c0 204 -150 352 -346 352zM571 1092l-251 300h189l210 -300h-148z" />
    <glyph glyph-name="oacute" unicode="&#xf3;" horiz-adv-x="1203" 
d="M601 966c285 0 499 -212 499 -492c0 -281 -214 -493 -499 -493s-498 212 -498 493c0 280 213 492 498 492zM601 826c-197 0 -346 -148 -346 -352c0 -205 149 -353 346 -353c196 0 346 148 346 353c0 204 -150 352 -346 352zM619 1092h-148l209 300h190z" />
    <glyph glyph-name="ocircumflex" unicode="&#xf4;" horiz-adv-x="1203" 
d="M601 966c285 0 499 -212 499 -492c0 -281 -214 -493 -499 -493s-498 212 -498 493c0 280 213 492 498 492zM601 826c-197 0 -346 -148 -346 -352c0 -205 149 -353 346 -353c196 0 346 148 346 353c0 204 -150 352 -346 352zM935 1093h-160l-174 189l-175 -189h-160
l235 288h200z" />
    <glyph glyph-name="otilde" unicode="&#xf5;" horiz-adv-x="1203" 
d="M601 966c285 0 499 -212 499 -492c0 -281 -214 -493 -499 -493s-498 212 -498 493c0 280 213 492 498 492zM601 826c-197 0 -346 -148 -346 -352c0 -205 149 -353 346 -353c196 0 346 148 346 353c0 204 -150 352 -346 352zM345 1149l-88 85c60 74 124 111 219 111
c135 0 181 -79 266 -79c50 0 87 22 130 67l89 -85c-60 -74 -125 -111 -219 -111c-134 0 -180 80 -266 80c-50 0 -88 -23 -131 -68z" />
    <glyph glyph-name="odieresis" unicode="&#xf6;" horiz-adv-x="1203" 
d="M601 966c285 0 499 -212 499 -492c0 -281 -214 -493 -499 -493s-498 212 -498 493c0 280 213 492 498 492zM601 826c-197 0 -346 -148 -346 -352c0 -205 149 -353 346 -353c196 0 346 148 346 353c0 204 -150 352 -346 352zM398 1343c59 0 106 -47 106 -107
s-47 -105 -106 -105c-60 0 -106 45 -106 105s46 107 106 107zM804 1343c59 0 106 -47 106 -107s-47 -105 -106 -105c-60 0 -105 45 -105 105s45 107 105 107z" />
    <glyph glyph-name="divide" unicode="&#xf7;" horiz-adv-x="1200" 
d="M1035 597v-136h-870v136h870zM601 953c55 0 103 -47 103 -104c0 -55 -48 -104 -103 -104c-56 0 -105 49 -105 104c0 57 49 104 105 104zM601 313c55 0 103 -47 103 -103s-48 -105 -103 -105c-56 0 -105 49 -105 105s49 103 105 103z" />
    <glyph glyph-name="oslash" unicode="&#xf8;" horiz-adv-x="1203" 
d="M601 966c117 0 222 -36 306 -98l111 111l90 -90l-110 -110c64 -83 102 -188 102 -305c0 -281 -214 -493 -499 -493c-117 0 -221 35 -304 97l-111 -111l-91 89l110 110c-65 83 -102 190 -102 308c0 280 213 492 498 492zM601 826c-197 0 -346 -148 -346 -352
c0 -77 21 -145 57 -201l491 491c-57 39 -126 62 -202 62zM947 474c0 75 -21 142 -56 198l-491 -491c56 -38 125 -60 201 -60c196 0 346 148 346 353z" />
    <glyph glyph-name="ugrave" unicode="&#xf9;" horiz-adv-x="1188" 
d="M1024 947v-552c0 -281 -202 -414 -430 -414c-229 0 -430 133 -430 414v552h149v-538c0 -196 119 -288 281 -288s280 92 280 288v538h150zM564 1092l-251 300h189l210 -300h-148z" />
    <glyph glyph-name="uacute" unicode="&#xfa;" horiz-adv-x="1188" 
d="M1024 947v-552c0 -281 -202 -414 -430 -414c-229 0 -430 133 -430 414v552h149v-538c0 -196 119 -288 281 -288s280 92 280 288v538h150zM612 1092h-148l209 300h190z" />
    <glyph glyph-name="ucircumflex" unicode="&#xfb;" horiz-adv-x="1188" 
d="M1024 947v-552c0 -281 -202 -414 -430 -414c-229 0 -430 133 -430 414v552h149v-538c0 -196 119 -288 281 -288s280 92 280 288v538h150zM928 1093h-160l-174 189l-175 -189h-160l235 288h200z" />
    <glyph glyph-name="udieresis" unicode="&#xfc;" horiz-adv-x="1188" 
d="M1024 947v-552c0 -281 -202 -414 -430 -414c-229 0 -430 133 -430 414v552h149v-538c0 -196 119 -288 281 -288s280 92 280 288v538h150zM391 1343c59 0 106 -47 106 -107s-47 -105 -106 -105c-60 0 -106 45 -106 105s46 107 106 107zM797 1343c59 0 106 -47 106 -107
s-47 -105 -106 -105c-60 0 -105 45 -105 105s45 107 105 107z" />
    <glyph glyph-name="yacute" unicode="&#xfd;" horiz-adv-x="1054" 
d="M1039 947l-771 -1351h-165l353 609l-435 742h167l353 -594l334 594h164zM550 1092h-148l209 300h190z" />
    <glyph glyph-name="thorn" unicode="&#xfe;" horiz-adv-x="1246" 
d="M670 966c266 0 473 -208 473 -492c0 -285 -207 -493 -473 -493c-156 0 -270 63 -345 159v-540h-150v1840h150v-633c75 96 189 159 345 159zM652 826c-197 0 -337 -152 -337 -352c0 -201 140 -353 337 -353c203 0 338 157 338 353c0 195 -138 352 -338 352z" />
    <glyph glyph-name="ydieresis" unicode="&#xff;" horiz-adv-x="1054" 
d="M1039 947l-771 -1351h-165l353 609l-435 742h167l353 -594l334 594h164zM329 1343c59 0 106 -47 106 -107s-47 -105 -106 -105c-60 0 -106 45 -106 105s46 107 106 107zM735 1343c59 0 106 -47 106 -107s-47 -105 -106 -105c-60 0 -105 45 -105 105s45 107 105 107z" />
    <glyph glyph-name="Amacron" unicode="&#x100;" horiz-adv-x="1421" 
d="M810 1400l575 -1400h-172l-159 390h-693l-158 -390h-167l575 1400h199zM708 1241l-285 -699h570zM412 1590v121h598v-121h-598z" />
    <glyph glyph-name="amacron" unicode="&#x101;" horiz-adv-x="1246" 
d="M1071 947v-947h-149v141c-75 -97 -190 -160 -346 -160c-266 0 -473 208 -473 493c0 284 207 492 473 492c156 0 271 -64 346 -160v141h149zM594 826c-203 0 -339 -157 -339 -352c0 -196 138 -353 339 -353c197 0 337 152 337 353c0 200 -140 352 -337 352zM312 1175v121
h598v-121h-598z" />
    <glyph glyph-name="Abreve" unicode="&#x102;" horiz-adv-x="1421" 
d="M810 1400l575 -1400h-172l-159 390h-693l-158 -390h-167l575 1400h199zM708 1241l-285 -699h570zM370 1781l120 37c38 -129 114 -191 221 -191c108 0 184 62 222 191l120 -37c-51 -184 -175 -280 -342 -280c-166 0 -290 96 -341 280z" />
    <glyph glyph-name="abreve" unicode="&#x103;" horiz-adv-x="1246" 
d="M1071 947v-947h-149v141c-75 -97 -190 -160 -346 -160c-266 0 -473 208 -473 493c0 284 207 492 473 492c156 0 271 -64 346 -160v141h149zM594 826c-203 0 -339 -157 -339 -352c0 -196 138 -353 339 -353c197 0 337 152 337 353c0 200 -140 352 -337 352zM270 1366
l120 37c38 -129 114 -191 221 -191c108 0 184 62 222 191l120 -37c-51 -184 -175 -280 -342 -280c-166 0 -290 96 -341 280z" />
    <glyph glyph-name="Aogonek" unicode="&#x104;" horiz-adv-x="1421" 
d="M1309 -236l79 -96c-57 -57 -121 -83 -194 -83c-124 0 -213 68 -213 176c0 105 81 178 227 251l-154 378h-693l-158 -390h-167l575 1402h199l575 -1402h-44c-150 -73 -219 -138 -219 -209c0 -47 34 -77 85 -77c39 0 72 18 102 50zM708 1243l-285 -701h570z" />
    <glyph glyph-name="aogonek" unicode="&#x105;" horiz-adv-x="1246" 
d="M1039 -236l79 -96c-57 -57 -121 -83 -194 -83c-124 0 -213 68 -213 176c0 101 75 173 211 243v137c-75 -97 -190 -160 -346 -160c-266 0 -473 208 -473 493c0 284 207 492 473 492c156 0 271 -64 346 -160v141h149v-947c-150 -73 -219 -138 -219 -209
c0 -47 34 -77 85 -77c39 0 72 18 102 50zM594 826c-203 0 -339 -157 -339 -352c0 -196 138 -353 339 -353c197 0 337 152 337 353c0 200 -140 352 -337 352z" />
    <glyph glyph-name="Cacute" unicode="&#x106;" horiz-adv-x="1530" 
d="M844 1420c244 0 461 -110 571 -290l-134 -90c-92 139 -252 225 -437 225c-314 0 -554 -228 -554 -565s240 -565 554 -565c185 0 343 84 437 224l130 -96c-116 -175 -326 -283 -567 -283c-416 0 -723 300 -723 720s307 720 723 720zM845 1507h-148l209 300h190z" />
    <glyph glyph-name="cacute" unicode="&#x107;" horiz-adv-x="1024" 
d="M593 966c140 0 266 -52 351 -149l-96 -101c-71 69 -156 110 -259 110c-190 0 -334 -148 -334 -352c0 -205 144 -353 334 -353c103 0 195 46 262 111l93 -102c-86 -97 -211 -149 -351 -149c-291 0 -490 212 -490 493c0 280 199 492 490 492zM601 1092h-148l209 300h190z
" />
    <glyph glyph-name="Ccircumflex" unicode="&#x108;" horiz-adv-x="1530" 
d="M844 1420c244 0 461 -110 571 -290l-134 -90c-92 139 -252 225 -437 225c-314 0 -554 -228 -554 -565s240 -565 554 -565c185 0 343 84 437 224l130 -96c-116 -175 -326 -283 -567 -283c-416 0 -723 300 -723 720s307 720 723 720zM1172 1508h-160l-174 189l-175 -189
h-160l235 288h200z" />
    <glyph glyph-name="ccircumflex" unicode="&#x109;" horiz-adv-x="1024" 
d="M593 966c140 0 266 -52 351 -149l-96 -101c-71 69 -156 110 -259 110c-190 0 -334 -148 -334 -352c0 -205 144 -353 334 -353c103 0 195 46 262 111l93 -102c-86 -97 -211 -149 -351 -149c-291 0 -490 212 -490 493c0 280 199 492 490 492zM917 1093h-160l-174 189
l-175 -189h-160l235 288h200z" />
    <glyph glyph-name="Cdotaccent" unicode="&#x10a;" horiz-adv-x="1530" 
d="M844 1420c244 0 461 -110 571 -290l-134 -90c-92 139 -252 225 -437 225c-314 0 -554 -228 -554 -565s240 -565 554 -565c185 0 343 84 437 224l130 -96c-116 -175 -326 -283 -567 -283c-416 0 -723 300 -723 720s307 720 723 720zM824 1764c61 0 110 -47 110 -109
s-49 -109 -110 -109c-62 0 -109 47 -109 109s47 109 109 109z" />
    <glyph glyph-name="cdotaccent" unicode="&#x10b;" horiz-adv-x="1024" 
d="M593 966c140 0 266 -52 351 -149l-96 -101c-71 69 -156 110 -259 110c-190 0 -334 -148 -334 -352c0 -205 144 -353 334 -353c103 0 195 46 262 111l93 -102c-86 -97 -211 -149 -351 -149c-291 0 -490 212 -490 493c0 280 199 492 490 492zM583 1389
c59 0 106 -46 106 -106s-47 -105 -106 -105c-60 0 -105 45 -105 105s45 106 105 106z" />
    <glyph glyph-name="Ccaron" unicode="&#x10c;" horiz-adv-x="1530" 
d="M844 1420c244 0 461 -110 571 -290l-134 -90c-92 139 -252 225 -437 225c-314 0 -554 -228 -554 -565s240 -565 554 -565c185 0 343 84 437 224l130 -96c-116 -175 -326 -283 -567 -283c-416 0 -723 300 -723 720s307 720 723 720zM503 1794h160l175 -189l174 189h160
l-234 -288h-200z" />
    <glyph glyph-name="ccaron" unicode="&#x10d;" horiz-adv-x="1024" 
d="M593 966c140 0 266 -52 351 -149l-96 -101c-71 69 -156 110 -259 110c-190 0 -334 -148 -334 -352c0 -205 144 -353 334 -353c103 0 195 46 262 111l93 -102c-86 -97 -211 -149 -351 -149c-291 0 -490 212 -490 493c0 280 199 492 490 492zM248 1379h160l175 -189
l174 189h160l-234 -288h-200z" />
    <glyph glyph-name="Dcaron" unicode="&#x10e;" horiz-adv-x="1598" 
d="M202 1400h527c457 0 747 -273 747 -700s-290 -700 -747 -700h-527v1400zM729 1248h-366v-1096h366c379 0 578 220 578 548c0 330 -199 548 -578 548zM403 1794h160l175 -189l174 189h160l-234 -288h-200z" />
    <glyph glyph-name="dcaron" unicode="&#x10f;" horiz-adv-x="1296" 
d="M576 966c156 0 271 -64 346 -160v634h149v-1440h-149v141c-75 -97 -190 -160 -346 -160c-266 0 -473 208 -473 493c0 284 207 492 473 492zM594 826c-203 0 -339 -157 -339 -352c0 -196 138 -353 339 -353c197 0 337 152 337 353c0 200 -140 352 -337 352zM1315 1051
h-126l7 389h153z" />
    <glyph glyph-name="Dcroat" unicode="&#x110;" horiz-adv-x="1749" 
d="M353 1400h527c457 0 747 -273 747 -700s-290 -700 -747 -700h-527v629h-232v152h232v619zM917 781v-152h-403v-477h366c379 0 578 220 578 548c0 330 -199 548 -578 548h-366v-467h403z" />
    <glyph glyph-name="dcroat" unicode="&#x111;" horiz-adv-x="1246" 
d="M1221 1251v-136h-150v-1115h-149v141c-75 -97 -190 -160 -346 -160c-266 0 -473 208 -473 493c0 284 207 492 473 492c156 0 271 -64 346 -160v309h-419v136h419v189h149v-189h150zM594 826c-203 0 -339 -157 -339 -352c0 -196 138 -353 339 -353c197 0 337 152 337 353
c0 200 -140 352 -337 352z" />
    <glyph glyph-name="Emacron" unicode="&#x112;" horiz-adv-x="1348" 
d="M1187 151v-151h-985v1400h976v-151h-815v-469h790v-150h-790v-479h824zM386 1590v121h598v-121h-598z" />
    <glyph glyph-name="emacron" unicode="&#x113;" horiz-adv-x="1121" 
d="M573 966c257 0 443 -201 445 -489c0 -19 -1 -39 -3 -56h-759c21 -204 164 -309 335 -309c117 0 219 45 300 119l80 -102c-118 -113 -250 -148 -389 -148c-280 0 -479 199 -479 492c0 290 200 493 470 493zM570 833c-175 0 -288 -120 -312 -291h608
c-19 177 -135 291 -296 291zM270 1175v121h598v-121h-598z" />
    <glyph glyph-name="Ebreve" unicode="&#x114;" horiz-adv-x="1348" 
d="M1187 151v-151h-985v1400h976v-151h-815v-469h790v-150h-790v-479h824zM344 1781l120 37c38 -129 114 -191 221 -191c108 0 184 62 222 191l120 -37c-51 -184 -175 -280 -342 -280c-166 0 -290 96 -341 280z" />
    <glyph glyph-name="ebreve" unicode="&#x115;" horiz-adv-x="1121" 
d="M573 966c257 0 443 -201 445 -489c0 -19 -1 -39 -3 -56h-759c21 -204 164 -309 335 -309c117 0 219 45 300 119l80 -102c-118 -113 -250 -148 -389 -148c-280 0 -479 199 -479 492c0 290 200 493 470 493zM570 833c-175 0 -288 -120 -312 -291h608
c-19 177 -135 291 -296 291zM228 1366l120 37c38 -129 114 -191 221 -191c108 0 184 62 222 191l120 -37c-51 -184 -175 -280 -342 -280c-166 0 -290 96 -341 280z" />
    <glyph glyph-name="Edotaccent" unicode="&#x116;" horiz-adv-x="1348" 
d="M1187 151v-151h-985v1400h976v-151h-815v-469h790v-150h-790v-479h824zM671 1764c61 0 110 -47 110 -109s-49 -109 -110 -109c-62 0 -109 47 -109 109s47 109 109 109z" />
    <glyph glyph-name="edotaccent" unicode="&#x117;" horiz-adv-x="1121" 
d="M573 966c257 0 443 -201 445 -489c0 -19 -1 -39 -3 -56h-759c21 -204 164 -309 335 -309c117 0 219 45 300 119l80 -102c-118 -113 -250 -148 -389 -148c-280 0 -479 199 -479 492c0 290 200 493 470 493zM570 833c-175 0 -288 -120 -312 -291h608
c-19 177 -135 291 -296 291zM569 1389c59 0 106 -46 106 -106s-47 -105 -106 -105c-60 0 -105 45 -105 105s45 106 105 106z" />
    <glyph glyph-name="Eogonek" unicode="&#x118;" horiz-adv-x="1348" 
d="M1187 151v-151h-184c-102 -55 -148 -112 -148 -182c0 -61 48 -104 124 -104c55 0 102 20 143 58l80 -97c-62 -59 -145 -90 -232 -90c-157 0 -261 88 -261 206c0 91 48 155 140 209h-647v1400h976v-151h-815v-469h790v-150h-790v-479h824z" />
    <glyph glyph-name="eogonek" unicode="&#x119;" horiz-adv-x="1121" 
d="M887 -228l80 -97c-62 -59 -145 -90 -232 -90c-157 0 -261 88 -261 206c0 80 38 140 107 190c-279 0 -478 199 -478 492c0 290 200 493 470 493c257 0 443 -201 445 -489c0 -19 -1 -39 -3 -56h-759c21 -204 164 -309 335 -309c117 0 219 45 300 119l80 -102
c-54 -52 -112 -85 -171 -112c-112 -51 -180 -119 -180 -199c0 -61 48 -104 124 -104c55 0 102 20 143 58zM570 833c-175 0 -288 -120 -312 -291h608c-19 177 -135 291 -296 291z" />
    <glyph glyph-name="Ecaron" unicode="&#x11a;" horiz-adv-x="1348" 
d="M1187 151v-151h-985v1400h976v-151h-815v-469h790v-150h-790v-479h824zM350 1794h160l175 -189l174 189h160l-234 -288h-200z" />
    <glyph glyph-name="ecaron" unicode="&#x11b;" horiz-adv-x="1121" 
d="M573 966c257 0 443 -201 445 -489c0 -19 -1 -39 -3 -56h-759c21 -204 164 -309 335 -309c117 0 219 45 300 119l80 -102c-118 -113 -250 -148 -389 -148c-280 0 -479 199 -479 492c0 290 200 493 470 493zM570 833c-175 0 -288 -120 -312 -291h608
c-19 177 -135 291 -296 291zM234 1379h160l175 -189l174 189h160l-234 -288h-200z" />
    <glyph glyph-name="Gcircumflex" unicode="&#x11c;" horiz-adv-x="1639" 
d="M844 1420c222 0 415 -88 543 -235l-119 -114c-99 120 -250 194 -424 194c-314 0 -554 -228 -554 -565s240 -565 547 -565c296 0 479 176 504 463h-436v150h610c1 -14 2 -28 2 -41c0 -408 -258 -726 -680 -726c-368 0 -716 266 -716 719c0 421 310 720 723 720zM1156 1508
h-160l-174 189l-175 -189h-160l235 288h200z" />
    <glyph glyph-name="gcircumflex" unicode="&#x11d;" horiz-adv-x="1235" 
d="M572 966c153 0 266 -63 338 -161v142h150v-882c0 -309 -208 -480 -501 -480c-151 0 -303 47 -399 127l66 120c90 -68 205 -111 333 -111c205 0 351 117 351 338v97c-72 -99 -185 -161 -338 -161c-266 0 -469 199 -469 486c0 286 203 485 469 485zM589 826
c-201 0 -334 -154 -334 -345c0 -192 133 -346 334 -346c195 0 334 149 334 346c0 195 -139 345 -334 345zM938 1093h-160l-174 189l-175 -189h-160l235 288h200z" />
    <glyph glyph-name="Gbreve" unicode="&#x11e;" horiz-adv-x="1639" 
d="M844 1420c222 0 415 -88 543 -235l-119 -114c-99 120 -250 194 -424 194c-314 0 -554 -228 -554 -565s240 -565 547 -565c296 0 479 176 504 463h-436v150h610c1 -14 2 -28 2 -41c0 -408 -258 -726 -680 -726c-368 0 -716 266 -716 719c0 421 310 720 723 720zM481 1781
l120 37c38 -129 114 -191 221 -191c108 0 184 62 222 191l120 -37c-51 -184 -175 -280 -342 -280c-166 0 -290 96 -341 280z" />
    <glyph glyph-name="gbreve" unicode="&#x11f;" horiz-adv-x="1235" 
d="M572 966c153 0 266 -63 338 -161v142h150v-882c0 -309 -208 -480 -501 -480c-151 0 -303 47 -399 127l66 120c90 -68 205 -111 333 -111c205 0 351 117 351 338v97c-72 -99 -185 -161 -338 -161c-266 0 -469 199 -469 486c0 286 203 485 469 485zM589 826
c-201 0 -334 -154 -334 -345c0 -192 133 -346 334 -346c195 0 334 149 334 346c0 195 -139 345 -334 345zM263 1366l120 37c38 -129 114 -191 221 -191c108 0 184 62 222 191l120 -37c-51 -184 -175 -280 -342 -280c-166 0 -290 96 -341 280z" />
    <glyph glyph-name="Gdotaccent" unicode="&#x120;" horiz-adv-x="1639" 
d="M844 1420c222 0 415 -88 543 -235l-119 -114c-99 120 -250 194 -424 194c-314 0 -554 -228 -554 -565s240 -565 547 -565c296 0 479 176 504 463h-436v150h610c1 -14 2 -28 2 -41c0 -408 -258 -726 -680 -726c-368 0 -716 266 -716 719c0 421 310 720 723 720zM808 1764
c61 0 110 -47 110 -109s-49 -109 -110 -109c-62 0 -109 47 -109 109s47 109 109 109z" />
    <glyph glyph-name="gdotaccent" unicode="&#x121;" horiz-adv-x="1235" 
d="M572 966c153 0 266 -63 338 -161v142h150v-882c0 -309 -208 -480 -501 -480c-151 0 -303 47 -399 127l66 120c90 -68 205 -111 333 -111c205 0 351 117 351 338v97c-72 -99 -185 -161 -338 -161c-266 0 -469 199 -469 486c0 286 203 485 469 485zM589 826
c-201 0 -334 -154 -334 -345c0 -192 133 -346 334 -346c195 0 334 149 334 346c0 195 -139 345 -334 345zM604 1389c59 0 106 -46 106 -106s-47 -105 -106 -105c-60 0 -105 45 -105 105s45 106 105 106z" />
    <glyph glyph-name="Gcommaaccent" unicode="&#x122;" horiz-adv-x="1639" 
d="M844 1420c222 0 415 -88 543 -235l-119 -114c-99 120 -250 194 -424 194c-314 0 -554 -228 -554 -565s240 -565 547 -565c296 0 479 176 504 463h-436v150h610c1 -14 2 -28 2 -41c0 -408 -258 -726 -680 -726c-368 0 -716 266 -716 719c0 421 310 720 723 720zM758 -88
h164l-74 -350h-132z" />
    <glyph glyph-name="gcommaaccent" unicode="&#x123;" horiz-adv-x="1235" 
d="M572 966c153 0 266 -63 338 -161v142h150v-882c0 -309 -208 -480 -501 -480c-151 0 -303 47 -399 127l66 120c90 -68 205 -111 333 -111c205 0 351 117 351 338v97c-72 -99 -185 -161 -338 -161c-266 0 -469 199 -469 486c0 286 203 485 469 485zM589 826
c-201 0 -334 -154 -334 -345c0 -192 133 -346 334 -346c195 0 334 149 334 346c0 195 -139 345 -334 345zM677 1092h-164l74 351h132z" />
    <glyph glyph-name="Hcircumflex" unicode="&#x124;" horiz-adv-x="1573" 
d="M363 1400v-619h847v619h161v-1400h-161v629h-847v-629h-161v1400h161zM1120 1508h-160l-174 189l-175 -189h-160l235 288h200z" />
    <glyph glyph-name="hcircumflex" unicode="&#x125;" horiz-adv-x="1201" 
d="M325 1440v-625c78 110 202 151 317 151c234 0 395 -150 395 -379v-587h-149v538c0 180 -100 286 -273 286c-159 0 -290 -110 -290 -290v-534h-150v1440h150zM943 1546h-160l-174 189l-175 -189h-160l235 288h200z" />
    <glyph glyph-name="Hbar" unicode="&#x126;" horiz-adv-x="1619" 
d="M1558 1146v-136h-163v-1010h-161v629h-847v-629h-161v1010h-165v136h165v254h161v-254h847v254h161v-254h163zM387 781h847v229h-847v-229z" />
    <glyph glyph-name="hbar" unicode="&#x127;" horiz-adv-x="1201" 
d="M717 1251v-136h-392v-300c78 110 202 151 317 151c234 0 395 -150 395 -379v-587h-149v538c0 180 -100 286 -273 286c-159 0 -290 -110 -290 -290v-534h-150v1115h-176v136h176v189h150v-189h392z" />
    <glyph glyph-name="Itilde" unicode="&#x128;" horiz-adv-x="565" 
d="M363 1400v-1400h-161v1400h161zM18 1564l-88 85c60 74 124 111 219 111c135 0 181 -79 266 -79c50 0 87 22 130 67l89 -85c-60 -74 -125 -111 -219 -111c-134 0 -180 80 -266 80c-50 0 -88 -23 -131 -68z" />
    <glyph glyph-name="itilde" unicode="&#x129;" horiz-adv-x="500" 
d="M325 947v-947h-150v947h150zM-6 1149l-88 85c60 74 124 111 219 111c135 0 181 -79 266 -79c50 0 87 22 130 67l89 -85c-60 -74 -125 -111 -219 -111c-134 0 -180 80 -266 80c-50 0 -88 -23 -131 -68z" />
    <glyph glyph-name="Imacron" unicode="&#x12a;" horiz-adv-x="565" 
d="M363 1400v-1400h-161v1400h161zM-17 1590v121h598v-121h-598z" />
    <glyph glyph-name="imacron" unicode="&#x12b;" horiz-adv-x="500" 
d="M325 947v-947h-150v947h150zM-49 1175v121h598v-121h-598z" />
    <glyph glyph-name="Ibreve" unicode="&#x12c;" horiz-adv-x="565" 
d="M363 1400v-1400h-161v1400h161zM-59 1781l120 37c38 -129 114 -191 221 -191c108 0 184 62 222 191l120 -37c-51 -184 -175 -280 -342 -280c-166 0 -290 96 -341 280z" />
    <glyph glyph-name="ibreve" unicode="&#x12d;" horiz-adv-x="500" 
d="M325 947v-947h-150v947h150zM-91 1366l120 37c38 -129 114 -191 221 -191c108 0 184 62 222 191l120 -37c-51 -184 -175 -280 -342 -280c-166 0 -290 96 -341 280z" />
    <glyph glyph-name="Iogonek" unicode="&#x12e;" horiz-adv-x="565" 
d="M408 -236l80 -96c-57 -57 -122 -83 -195 -83c-124 0 -213 68 -213 176c0 93 58 166 157 239h-35v1400h161v-1400h-1c-93 -76 -141 -147 -141 -209c0 -47 34 -77 85 -77c40 0 73 18 102 50z" />
    <glyph glyph-name="iogonek" unicode="&#x12f;" horiz-adv-x="500" 
d="M325 947v-947h-1c-93 -76 -141 -147 -141 -209c0 -47 34 -77 85 -77c40 0 73 18 102 50l80 -96c-57 -57 -122 -83 -195 -83c-124 0 -213 68 -213 176c0 93 58 166 157 239h-24v947h150zM250 1389c59 0 106 -46 106 -106s-47 -105 -106 -105c-60 0 -105 45 -105 105
s45 106 105 106z" />
    <glyph glyph-name="Idotaccent" unicode="&#x130;" horiz-adv-x="565" 
d="M363 1400v-1400h-161v1400h161zM268 1764c61 0 110 -47 110 -109s-49 -109 -110 -109c-62 0 -109 47 -109 109s47 109 109 109z" />
    <glyph glyph-name="dotlessi" unicode="&#x131;" horiz-adv-x="500" 
d="M325 947v-947h-150v947h150z" />
    <glyph glyph-name="IJ" unicode="&#x132;" horiz-adv-x="1715" 
d="M363 1400v-1400h-161v1400h161zM1523 1400v-901c0 -334 -209 -518 -486 -518c-224 0 -355 104 -432 197l108 110c66 -83 171 -153 323 -153c196 0 327 129 327 380v885h160z" />
    <glyph glyph-name="ij" unicode="&#x133;" horiz-adv-x="1004" 
d="M829 947v-1103c0 -168 -93 -259 -236 -259c-49 0 -102 13 -136 32l36 129c24 -12 55 -20 87 -20c61 0 99 38 99 125v1096h150zM753 1389c59 0 106 -46 106 -106s-47 -105 -106 -105c-60 0 -105 45 -105 105s45 106 105 106zM325 947v-947h-150v947h150zM250 1389
c59 0 106 -46 106 -106s-47 -105 -106 -105c-60 0 -105 45 -105 105s45 106 105 106z" />
    <glyph glyph-name="Jcircumflex" unicode="&#x134;" horiz-adv-x="1150" 
d="M958 1400v-901c0 -334 -209 -518 -486 -518c-224 0 -355 104 -432 197l108 110c66 -83 171 -153 323 -153c196 0 327 129 327 380v885h160zM1212 1508h-160l-174 189l-175 -189h-160l235 288h200z" />
    <glyph glyph-name="jcircumflex" unicode="&#x135;" horiz-adv-x="504" 
d="M329 947v-1103c0 -168 -93 -259 -236 -259c-49 0 -102 13 -136 32l36 129c24 -12 55 -20 87 -20c61 0 99 38 99 125v1096h150zM587 1093h-160l-174 189l-175 -189h-160l235 288h200z" />
    <glyph glyph-name="Kcommaaccent" unicode="&#x136;" horiz-adv-x="1388" 
d="M1145 0l-616 628h-166v-628h-161v1400h161v-620h169l581 620h208l-658 -687l701 -713h-219zM633 -88h164l-74 -350h-132z" />
    <glyph glyph-name="kcommaaccent" unicode="&#x137;" horiz-adv-x="1058" 
d="M325 1440v-877h137l365 384h187l-430 -446l437 -501h-189l-371 427h-136v-427h-150v1440h150zM490 -88h164l-74 -350h-132z" />
    <glyph glyph-name="kgreenlandic" unicode="&#x138;" horiz-adv-x="1049" 
d="M325 947v-384h133l359 384h188l-425 -446l432 -501h-189l-366 427h-132v-427h-150v947h150z" />
    <glyph glyph-name="Lacute" unicode="&#x139;" horiz-adv-x="1213" 
d="M1173 152v-152h-971v1400h161v-1248h810zM289 1507h-148l209 300h190z" />
    <glyph glyph-name="lacute" unicode="&#x13a;" horiz-adv-x="500" 
d="M325 1440v-1440h-150v1440h150zM232 1545h-148l209 300h190z" />
    <glyph glyph-name="Lcommaaccent" unicode="&#x13b;" horiz-adv-x="1213" 
d="M1173 152v-152h-971v1400h161v-1248h810zM617 -88h164l-74 -350h-132z" />
    <glyph glyph-name="lcommaaccent" unicode="&#x13c;" horiz-adv-x="500" 
d="M325 1440v-1440h-150v1440h150zM181 -88h164l-74 -350h-132z" />
    <glyph glyph-name="Lcaron" unicode="&#x13d;" horiz-adv-x="1213" 
d="M1173 152v-152h-971v1400h161v-1248h810zM727 1011h-126l7 389h153z" />
    <glyph glyph-name="lcaron" unicode="&#x13e;" horiz-adv-x="543" 
d="M325 1440v-1440h-150v1440h150zM558 1051h-126l7 389h153z" />
    <glyph glyph-name="Ldot" unicode="&#x13f;" horiz-adv-x="1213" 
d="M1173 152v-152h-971v1400h161v-1248h810zM857 814c61 0 110 -47 110 -109s-49 -109 -110 -109c-62 0 -109 47 -109 109s47 109 109 109z" />
    <glyph glyph-name="ldot" unicode="&#x140;" horiz-adv-x="613" 
d="M325 1440v-1440h-150v1440h150zM552 836c59 0 106 -46 106 -106s-47 -105 -106 -105c-60 0 -105 45 -105 105s45 106 105 106z" />
    <glyph glyph-name="Lslash" unicode="&#x141;" horiz-adv-x="1346" 
d="M1306 152v-152h-971v503l-214 -120v172l214 120v725h161v-635l517 290v-172l-517 -290v-441h810z" />
    <glyph glyph-name="lslash" unicode="&#x142;" horiz-adv-x="670" 
d="M409 1440v-563l208 148v-155l-208 -148v-722h-150v616l-206 -146v155l206 146v669h150z" />
    <glyph glyph-name="Nacute" unicode="&#x143;" horiz-adv-x="1577" 
d="M1375 1400v-1400h-145l-867 1124v-1124h-161v1400h145l867 -1124v1124h161zM795 1507h-148l209 300h190z" />
    <glyph glyph-name="nacute" unicode="&#x144;" horiz-adv-x="1201" 
d="M642 966c234 0 395 -150 395 -379v-587h-149v538c0 180 -100 286 -273 286c-159 0 -290 -110 -290 -290v-534h-150v947h148v-135c77 113 203 154 319 154zM635 1092h-148l209 300h190z" />
    <glyph glyph-name="Ncommaaccent" unicode="&#x145;" horiz-adv-x="1577" 
d="M1375 1400v-1400h-145l-867 1124v-1124h-161v1400h145l867 -1124v1124h161zM722 -88h164l-74 -350h-132z" />
    <glyph glyph-name="ncommaaccent" unicode="&#x146;" horiz-adv-x="1201" 
d="M642 966c234 0 395 -150 395 -379v-587h-149v538c0 180 -100 286 -273 286c-159 0 -290 -110 -290 -290v-534h-150v947h148v-135c77 113 203 154 319 154zM536 -88h164l-74 -350h-132z" />
    <glyph glyph-name="Ncaron" unicode="&#x147;" horiz-adv-x="1577" 
d="M1375 1400v-1400h-145l-867 1124v-1124h-161v1400h145l867 -1124v1124h161zM453 1794h160l175 -189l174 189h160l-234 -288h-200z" />
    <glyph glyph-name="ncaron" unicode="&#x148;" horiz-adv-x="1201" 
d="M642 966c234 0 395 -150 395 -379v-587h-149v538c0 180 -100 286 -273 286c-159 0 -290 -110 -290 -290v-534h-150v947h148v-135c77 113 203 154 319 154zM282 1379h160l175 -189l174 189h160l-234 -288h-200z" />
    <glyph glyph-name="napostrophe" unicode="&#x149;" horiz-adv-x="1476" 
d="M187 1440h174l-105 -507h-129zM917 966c234 0 395 -150 395 -379v-587h-149v538c0 180 -100 286 -273 286c-159 0 -290 -110 -290 -290v-534h-150v947h148v-135c77 113 203 154 319 154z" />
    <glyph glyph-name="Eng" unicode="&#x14a;" horiz-adv-x="1577" 
d="M1375 1400v-1437c0 -212 -99 -378 -340 -378c-108 0 -195 27 -262 64l59 140c50 -27 117 -49 186 -49c139 0 196 91 196 230v50l-851 1104v-1124h-161v1400h145l867 -1124v1124h161z" />
    <glyph glyph-name="eng" unicode="&#x14b;" horiz-adv-x="1201" 
d="M642 966c234 0 395 -150 395 -379v-664c0 -168 -92 -259 -235 -259c-49 0 -102 13 -136 32l36 129c24 -12 54 -20 86 -20c62 0 100 38 100 125v608c0 180 -100 286 -273 286c-159 0 -290 -110 -290 -290v-534h-150v947h148v-135c77 113 203 154 319 154z" />
    <glyph glyph-name="Omacron" unicode="&#x14c;" horiz-adv-x="1689" 
d="M844 1420c417 0 723 -300 723 -720s-306 -720 -723 -720c-416 0 -723 300 -723 720s307 720 723 720zM844 1265c-314 0 -554 -228 -554 -565s240 -565 554 -565c315 0 555 228 555 565s-240 565 -555 565zM545 1590v121h598v-121h-598z" />
    <glyph glyph-name="omacron" unicode="&#x14d;" horiz-adv-x="1203" 
d="M601 966c285 0 499 -212 499 -492c0 -281 -214 -493 -499 -493s-498 212 -498 493c0 280 213 492 498 492zM601 826c-197 0 -346 -148 -346 -352c0 -205 149 -353 346 -353c196 0 346 148 346 353c0 204 -150 352 -346 352zM302 1175v121h598v-121h-598z" />
    <glyph glyph-name="Obreve" unicode="&#x14e;" horiz-adv-x="1689" 
d="M844 1420c417 0 723 -300 723 -720s-306 -720 -723 -720c-416 0 -723 300 -723 720s307 720 723 720zM844 1265c-314 0 -554 -228 -554 -565s240 -565 554 -565c315 0 555 228 555 565s-240 565 -555 565zM503 1781l120 37c38 -129 114 -191 221 -191
c108 0 184 62 222 191l120 -37c-51 -184 -175 -280 -342 -280c-166 0 -290 96 -341 280z" />
    <glyph glyph-name="obreve" unicode="&#x14f;" horiz-adv-x="1203" 
d="M601 966c285 0 499 -212 499 -492c0 -281 -214 -493 -499 -493s-498 212 -498 493c0 280 213 492 498 492zM601 826c-197 0 -346 -148 -346 -352c0 -205 149 -353 346 -353c196 0 346 148 346 353c0 204 -150 352 -346 352zM260 1366l120 37c38 -129 114 -191 221 -191
c108 0 184 62 222 191l120 -37c-51 -184 -175 -280 -342 -280c-166 0 -290 96 -341 280z" />
    <glyph glyph-name="Ohungarumlaut" unicode="&#x150;" horiz-adv-x="1689" 
d="M844 1420c417 0 723 -300 723 -720s-306 -720 -723 -720c-416 0 -723 300 -723 720s307 720 723 720zM844 1265c-314 0 -554 -228 -554 -565s240 -565 554 -565c315 0 555 228 555 565s-240 565 -555 565zM1062 1507h-150l215 300h175zM721 1507h-153l200 300h169z" />
    <glyph glyph-name="ohungarumlaut" unicode="&#x151;" horiz-adv-x="1203" 
d="M601 966c285 0 499 -212 499 -492c0 -281 -214 -493 -499 -493s-498 212 -498 493c0 280 213 492 498 492zM601 826c-197 0 -346 -148 -346 -352c0 -205 149 -353 346 -353c196 0 346 148 346 353c0 204 -150 352 -346 352zM834 1092h-150l215 300h175zM493 1092h-153
l200 300h169z" />
    <glyph glyph-name="OE" unicode="&#x152;" horiz-adv-x="2257" 
d="M2096 151v-151h-1228c-457 0 -747 273 -747 700s290 700 747 700h1219v-151h-815v-469h790v-150h-790v-479h824zM290 700c0 -330 199 -548 578 -548h243v1096h-243c-379 0 -578 -220 -578 -548z" />
    <glyph glyph-name="oe" unicode="&#x153;" horiz-adv-x="1965" 
d="M1417 966c257 0 442 -201 445 -489c0 -20 -2 -39 -3 -56h-759c21 -204 164 -309 335 -309c117 0 220 46 300 119l80 -102c-118 -113 -250 -148 -389 -148c-186 0 -334 87 -411 233c-83 -142 -234 -233 -414 -233c-285 0 -498 212 -498 493c0 280 213 492 498 492
c181 0 333 -93 415 -236c78 146 224 236 401 236zM601 826c-197 0 -346 -148 -346 -352c0 -205 149 -353 346 -353c196 0 346 148 346 353c0 204 -150 352 -346 352zM1414 833c-175 0 -288 -120 -312 -291h608c-19 176 -135 291 -296 291z" />
    <glyph glyph-name="Racute" unicode="&#x154;" horiz-adv-x="1353" 
d="M202 1400h549c315 0 489 -142 489 -395c0 -242 -188 -396 -487 -396h-23l503 -609h-200l-493 609h-177v-609h-161v1400zM749 1249h-386v-494h386c213 0 324 87 324 250c0 162 -114 244 -324 244zM670 1507h-148l209 300h190z" />
    <glyph glyph-name="racute" unicode="&#x155;" horiz-adv-x="830" 
d="M604 966c68 0 124 -9 174 -32l-36 -147c-46 25 -109 38 -164 38c-148 0 -254 -116 -254 -295v-530h-149v947h148v-133c65 97 165 152 281 152zM493 1092h-148l209 300h190z" />
    <glyph glyph-name="Rcommaaccent" unicode="&#x156;" horiz-adv-x="1353" 
d="M202 1400h549c315 0 489 -142 489 -395c0 -242 -188 -396 -487 -396h-23l503 -609h-200l-493 609h-177v-609h-161v1400zM749 1249h-386v-494h386c213 0 324 87 324 250c0 162 -114 244 -324 244zM605 -88h164l-74 -350h-132z" />
    <glyph glyph-name="rcommaaccent" unicode="&#x157;" horiz-adv-x="830" 
d="M604 966c68 0 124 -9 174 -32l-36 -147c-46 25 -109 38 -164 38c-148 0 -254 -116 -254 -295v-530h-149v947h148v-133c65 97 165 152 281 152zM182 -88h164l-74 -350h-132z" />
    <glyph glyph-name="Rcaron" unicode="&#x158;" horiz-adv-x="1353" 
d="M202 1400h549c315 0 489 -142 489 -395c0 -242 -188 -396 -487 -396h-23l503 -609h-200l-493 609h-177v-609h-161v1400zM749 1249h-386v-494h386c213 0 324 87 324 250c0 162 -114 244 -324 244zM328 1794h160l175 -189l174 189h160l-234 -288h-200z" />
    <glyph glyph-name="rcaron" unicode="&#x159;" horiz-adv-x="830" 
d="M604 966c68 0 124 -9 174 -32l-36 -147c-46 25 -109 38 -164 38c-148 0 -254 -116 -254 -295v-530h-149v947h148v-133c65 97 165 152 281 152zM140 1379h160l175 -189l174 189h160l-234 -288h-200z" />
    <glyph glyph-name="Sacute" unicode="&#x15a;" horiz-adv-x="1346" 
d="M1198 1265l-82 -130c-113 77 -254 131 -422 131c-211 0 -362 -95 -362 -253c0 -130 105 -201 323 -227l133 -16c231 -28 437 -126 437 -368c0 -277 -252 -421 -554 -421c-203 0 -418 72 -550 180l88 128c97 -82 279 -156 461 -156c217 0 388 88 388 255
c0 136 -117 204 -339 229l-141 16c-239 27 -413 138 -413 370c0 266 237 415 530 415c213 0 374 -63 503 -153zM720 1507h-148l209 300h190z" />
    <glyph glyph-name="sacute" unicode="&#x15b;" horiz-adv-x="987" 
d="M876 862l-65 -116c-61 42 -182 89 -310 89c-135 0 -224 -57 -224 -149c0 -79 69 -118 193 -133l112 -14c201 -26 318 -109 318 -264c0 -180 -162 -293 -417 -293c-122 0 -275 30 -395 121l69 112c72 -56 168 -103 328 -103s261 53 261 153c0 76 -64 122 -198 138l-113 13
c-213 26 -313 121 -313 262c0 179 151 287 378 287c149 0 285 -42 376 -103zM532 1092h-148l209 300h190z" />
    <glyph glyph-name="Scircumflex" unicode="&#x15c;" horiz-adv-x="1346" 
d="M1198 1265l-82 -130c-113 77 -254 131 -422 131c-211 0 -362 -95 -362 -253c0 -130 105 -201 323 -227l133 -16c231 -28 437 -126 437 -368c0 -277 -252 -421 -554 -421c-203 0 -418 72 -550 180l88 128c97 -82 279 -156 461 -156c217 0 388 88 388 255
c0 136 -117 204 -339 229l-141 16c-239 27 -413 138 -413 370c0 266 237 415 530 415c213 0 374 -63 503 -153zM1047 1508h-160l-174 189l-175 -189h-160l235 288h200z" />
    <glyph glyph-name="scircumflex" unicode="&#x15d;" horiz-adv-x="987" 
d="M876 862l-65 -116c-61 42 -182 89 -310 89c-135 0 -224 -57 -224 -149c0 -79 69 -118 193 -133l112 -14c201 -26 318 -109 318 -264c0 -180 -162 -293 -417 -293c-122 0 -275 30 -395 121l69 112c72 -56 168 -103 328 -103s261 53 261 153c0 76 -64 122 -198 138l-113 13
c-213 26 -313 121 -313 262c0 179 151 287 378 287c149 0 285 -42 376 -103zM848 1093h-160l-174 189l-175 -189h-160l235 288h200z" />
    <glyph glyph-name="Scedilla" unicode="&#x15e;" horiz-adv-x="1346" 
d="M1198 1265l-82 -130c-113 77 -254 131 -422 131c-211 0 -362 -95 -362 -253c0 -130 105 -201 323 -227l133 -16c231 -28 437 -126 437 -368c0 -246 -199 -387 -455 -415l-97 -310h-163l103 306c-185 12 -373 80 -492 178l88 128c97 -82 279 -156 461 -156
c217 0 388 88 388 255c0 136 -117 204 -339 229l-141 16c-239 27 -413 138 -413 370c0 266 237 415 530 415c213 0 374 -63 503 -153z" />
    <glyph glyph-name="scedilla" unicode="&#x15f;" horiz-adv-x="987" 
d="M876 862l-65 -116c-61 42 -182 89 -310 89c-135 0 -224 -57 -224 -149c0 -79 69 -118 193 -133l112 -14c201 -26 318 -109 318 -264c0 -153 -118 -258 -309 -285l-98 -313h-156l101 307c-113 6 -244 38 -350 119l69 112c72 -56 168 -103 328 -103s261 53 261 153
c0 76 -64 122 -198 138l-113 13c-213 26 -313 121 -313 262c0 179 151 287 378 287c149 0 285 -42 376 -103z" />
    <glyph glyph-name="Scaron" unicode="&#x160;" horiz-adv-x="1346" 
d="M1198 1265l-82 -130c-113 77 -254 131 -422 131c-211 0 -362 -95 -362 -253c0 -130 105 -201 323 -227l133 -16c231 -28 437 -126 437 -368c0 -277 -252 -421 -554 -421c-203 0 -418 72 -550 180l88 128c97 -82 279 -156 461 -156c217 0 388 88 388 255
c0 136 -117 204 -339 229l-141 16c-239 27 -413 138 -413 370c0 266 237 415 530 415c213 0 374 -63 503 -153zM378 1794h160l175 -189l174 189h160l-234 -288h-200z" />
    <glyph glyph-name="scaron" unicode="&#x161;" horiz-adv-x="987" 
d="M876 862l-65 -116c-61 42 -182 89 -310 89c-135 0 -224 -57 -224 -149c0 -79 69 -118 193 -133l112 -14c201 -26 318 -109 318 -264c0 -180 -162 -293 -417 -293c-122 0 -275 30 -395 121l69 112c72 -56 168 -103 328 -103s261 53 261 153c0 76 -64 122 -198 138l-113 13
c-213 26 -313 121 -313 262c0 179 151 287 378 287c149 0 285 -42 376 -103zM179 1379h160l175 -189l174 189h160l-234 -288h-200z" />
    <glyph glyph-name="Tcommaaccent" unicode="&#x162;" horiz-adv-x="1212" 
d="M1172 1400v-152h-486v-1248h-3l-101 -323h-163l109 323h-2v1248h-486v152h1132z" />
    <glyph glyph-name="tcommaaccent" unicode="&#x163;" horiz-adv-x="906" 
d="M818 947v-135h-409v-478c0 -148 78 -213 188 -213c73 0 144 27 199 67l70 -113c-61 -47 -139 -82 -233 -91l-96 -307h-156l104 315c-143 32 -225 143 -225 339v481h-207v135h207v301h149v-301h409z" />
    <glyph glyph-name="Tcaron" unicode="&#x164;" horiz-adv-x="1212" 
d="M1172 1400v-152h-486v-1248h-160v1248h-486v152h1132zM271 1794h160l175 -189l174 189h160l-234 -288h-200z" />
    <glyph glyph-name="tcaron" unicode="&#x165;" horiz-adv-x="906" 
d="M818 947v-135h-409v-478c0 -148 78 -213 188 -213c73 0 144 27 199 67l70 -113c-71 -54 -165 -94 -281 -94c-204 0 -325 112 -325 350v481h-207v135h207v301h149v-301h409zM661 1051h-126l7 389h153z" />
    <glyph glyph-name="Tbar" unicode="&#x166;" horiz-adv-x="1212" 
d="M1004 781v-152h-318v-629h-160v629h-318v152h318v467h-486v152h1132v-152h-486v-467h318z" />
    <glyph glyph-name="tbar" unicode="&#x167;" horiz-adv-x="906" 
d="M818 947v-135h-409v-222h307v-136h-307v-120c0 -148 78 -213 188 -213c73 0 144 27 199 67l70 -113c-71 -54 -165 -94 -281 -94c-204 0 -325 112 -325 350v123h-199v136h199v222h-207v135h207v301h149v-301h409z" />
    <glyph glyph-name="Utilde" unicode="&#x168;" horiz-adv-x="1517" 
d="M1335 1400v-852c0 -380 -257 -567 -577 -567s-576 187 -576 567v852h160v-840c0 -293 177 -425 416 -425s416 132 416 425v840h161zM494 1564l-88 85c60 74 124 111 219 111c135 0 181 -79 266 -79c50 0 87 22 130 67l89 -85c-60 -74 -125 -111 -219 -111
c-134 0 -180 80 -266 80c-50 0 -88 -23 -131 -68z" />
    <glyph glyph-name="utilde" unicode="&#x169;" horiz-adv-x="1188" 
d="M1024 947v-552c0 -281 -202 -414 -430 -414c-229 0 -430 133 -430 414v552h149v-538c0 -196 119 -288 281 -288s280 92 280 288v538h150zM338 1149l-88 85c60 74 124 111 219 111c135 0 181 -79 266 -79c50 0 87 22 130 67l89 -85c-60 -74 -125 -111 -219 -111
c-134 0 -180 80 -266 80c-50 0 -88 -23 -131 -68z" />
    <glyph glyph-name="Umacron" unicode="&#x16a;" horiz-adv-x="1517" 
d="M1335 1400v-852c0 -380 -257 -567 -577 -567s-576 187 -576 567v852h160v-840c0 -293 177 -425 416 -425s416 132 416 425v840h161zM459 1590v121h598v-121h-598z" />
    <glyph glyph-name="umacron" unicode="&#x16b;" horiz-adv-x="1188" 
d="M1024 947v-552c0 -281 -202 -414 -430 -414c-229 0 -430 133 -430 414v552h149v-538c0 -196 119 -288 281 -288s280 92 280 288v538h150zM295 1175v121h598v-121h-598z" />
    <glyph glyph-name="Ubreve" unicode="&#x16c;" horiz-adv-x="1517" 
d="M1335 1400v-852c0 -380 -257 -567 -577 -567s-576 187 -576 567v852h160v-840c0 -293 177 -425 416 -425s416 132 416 425v840h161zM417 1781l120 37c38 -129 114 -191 221 -191c108 0 184 62 222 191l120 -37c-51 -184 -175 -280 -342 -280c-166 0 -290 96 -341 280z
" />
    <glyph glyph-name="ubreve" unicode="&#x16d;" horiz-adv-x="1188" 
d="M1024 947v-552c0 -281 -202 -414 -430 -414c-229 0 -430 133 -430 414v552h149v-538c0 -196 119 -288 281 -288s280 92 280 288v538h150zM253 1366l120 37c38 -129 114 -191 221 -191c108 0 184 62 222 191l120 -37c-51 -184 -175 -280 -342 -280
c-166 0 -290 96 -341 280z" />
    <glyph glyph-name="Uring" unicode="&#x16e;" horiz-adv-x="1517" 
d="M1335 1400v-852c0 -380 -257 -567 -577 -567s-576 187 -576 567v852h160v-840c0 -293 177 -425 416 -425s416 132 416 425v840h161zM758 1487c-124 0 -227 101 -227 225c0 123 103 224 227 224c125 0 228 -101 228 -224c0 -124 -103 -225 -228 -225zM758 1582
c70 0 128 57 128 130c0 72 -58 129 -128 129s-127 -57 -127 -129c0 -73 57 -130 127 -130z" />
    <glyph glyph-name="uring" unicode="&#x16f;" horiz-adv-x="1188" 
d="M1024 947v-552c0 -281 -202 -414 -430 -414c-229 0 -430 133 -430 414v552h149v-538c0 -196 119 -288 281 -288s280 92 280 288v538h150zM593 1072c-124 0 -227 101 -227 225c0 123 103 224 227 224c125 0 228 -101 228 -224c0 -124 -103 -225 -228 -225zM593 1167
c70 0 128 57 128 130c0 72 -58 129 -128 129s-127 -57 -127 -129c0 -73 57 -130 127 -130z" />
    <glyph glyph-name="Uhungarumlaut" unicode="&#x170;" horiz-adv-x="1517" 
d="M1335 1400v-852c0 -380 -257 -567 -577 -567s-576 187 -576 567v852h160v-840c0 -293 177 -425 416 -425s416 132 416 425v840h161zM976 1507h-150l215 300h175zM635 1507h-153l200 300h169z" />
    <glyph glyph-name="uhungarumlaut" unicode="&#x171;" horiz-adv-x="1188" 
d="M1024 947v-552c0 -281 -202 -414 -430 -414c-229 0 -430 133 -430 414v552h149v-538c0 -196 119 -288 281 -288s280 92 280 288v538h150zM827 1092h-150l215 300h175zM486 1092h-153l200 300h169z" />
    <glyph glyph-name="Uogonek" unicode="&#x172;" horiz-adv-x="1517" 
d="M1119 -228l80 -97c-62 -59 -145 -90 -232 -90c-157 0 -261 88 -261 206c0 81 39 141 111 192c-21 -1 -39 -2 -59 -2c-320 0 -576 187 -576 567v852h160v-840c0 -293 177 -425 416 -425s416 132 416 425v840h161v-852c0 -251 -112 -416 -278 -503
c-135 -71 -205 -137 -205 -227c0 -61 48 -104 124 -104c55 0 102 20 143 58z" />
    <glyph glyph-name="uogonek" unicode="&#x173;" horiz-adv-x="1188" 
d="M907 -228l80 -97c-62 -59 -145 -90 -232 -90c-157 0 -261 88 -261 206c0 80 38 140 107 190h-7c-229 0 -430 133 -430 414v552h149v-538c0 -196 119 -288 281 -288s280 92 280 288v538h150v-552c0 -186 -88 -303 -211 -368c-114 -61 -173 -127 -173 -209
c0 -61 48 -104 124 -104c55 0 102 20 143 58z" />
    <glyph glyph-name="Wcircumflex" unicode="&#x174;" horiz-adv-x="2197" 
d="M2139 1400l-455 -1400h-198l-388 1186l-388 -1186h-197l-455 1400h168l387 -1218l396 1218h182l395 -1219l388 1219h165zM1432 1508h-160l-174 189l-175 -189h-160l235 288h200z" />
    <glyph glyph-name="wcircumflex" unicode="&#x175;" horiz-adv-x="1706" 
d="M937 947l284 -792l285 792h155l-350 -947h-177l-283 787l-282 -787h-174l-350 947h159l283 -791l282 791h168zM1187 1093h-160l-174 189l-175 -189h-160l235 288h200z" />
    <glyph glyph-name="Ycircumflex" unicode="&#x176;" horiz-adv-x="1287" 
d="M1276 1400l-551 -813v-587h-160v589l-554 811h192l443 -664l443 664h187zM980 1508h-160l-174 189l-175 -189h-160l235 288h200z" />
    <glyph glyph-name="ycircumflex" unicode="&#x177;" horiz-adv-x="1054" 
d="M1039 947l-771 -1351h-165l353 609l-435 742h167l353 -594l334 594h164zM866 1093h-160l-174 189l-175 -189h-160l235 288h200z" />
    <glyph glyph-name="Ydieresis" unicode="&#x178;" horiz-adv-x="1287" 
d="M1276 1400l-551 -813v-587h-160v589l-554 811h192l443 -664l443 664h187zM443 1758c59 0 106 -47 106 -107s-47 -105 -106 -105c-60 0 -106 45 -106 105s46 107 106 107zM849 1758c59 0 106 -47 106 -107s-47 -105 -106 -105c-60 0 -105 45 -105 105s45 107 105 107z" />
    <glyph glyph-name="Zacute" unicode="&#x179;" horiz-adv-x="1314" 
d="M1190 1400v-124l-855 -1124h858v-152h-1072v124l856 1124h-846v152h1059zM668 1507h-148l209 300h190z" />
    <glyph glyph-name="zacute" unicode="&#x17a;" horiz-adv-x="1055" 
d="M924 947v-109l-604 -703h613v-135h-811v108l610 704h-592v135h784zM550 1092h-148l209 300h190z" />
    <glyph glyph-name="Zdotaccent" unicode="&#x17b;" horiz-adv-x="1314" 
d="M1190 1400v-124l-855 -1124h858v-152h-1072v124l856 1124h-846v152h1059zM647 1764c61 0 110 -47 110 -109s-49 -109 -110 -109c-62 0 -109 47 -109 109s47 109 109 109z" />
    <glyph glyph-name="zdotaccent" unicode="&#x17c;" horiz-adv-x="1055" 
d="M924 947v-109l-604 -703h613v-135h-811v108l610 704h-592v135h784zM532 1389c59 0 106 -46 106 -106s-47 -105 -106 -105c-60 0 -105 45 -105 105s45 106 105 106z" />
    <glyph glyph-name="Zcaron" unicode="&#x17d;" horiz-adv-x="1314" 
d="M1190 1400v-124l-855 -1124h858v-152h-1072v124l856 1124h-846v152h1059zM326 1794h160l175 -189l174 189h160l-234 -288h-200z" />
    <glyph glyph-name="zcaron" unicode="&#x17e;" horiz-adv-x="1055" 
d="M924 947v-109l-604 -703h613v-135h-811v108l610 704h-592v135h784zM197 1379h160l175 -189l174 189h160l-234 -288h-200z" />
    <glyph glyph-name="longs" unicode="&#x17f;" horiz-adv-x="645" 
d="M481 1459c107 0 192 -30 259 -71l-53 -125c-52 30 -124 56 -196 56c-122 0 -175 -78 -175 -210v-1109h-150v1109c0 202 91 350 315 350z" />
    <glyph glyph-name="uni018F" unicode="&#x18f;" horiz-adv-x="1622" 
d="M794 1419c399 0 706 -302 706 -719s-301 -719 -691 -719c-403 0 -688 297 -688 709c0 28 2 55 3 83h1207c-33 289 -256 492 -536 492c-195 0 -343 -84 -458 -218l-112 110c143 161 330 262 569 262zM810 135c270 0 487 199 520 488h-1033c16 -282 228 -488 513 -488z" />
    <glyph glyph-name="florin" unicode="&#x192;" horiz-adv-x="1400" 
d="M1080 793v-136h-311l-34 -348c-20 -197 -101 -327 -292 -327c-96 0 -173 27 -233 65l51 120c45 -28 110 -50 173 -50c100 0 143 73 155 192l35 348h-261v136h275l30 298c20 197 101 327 291 327c96 0 173 -27 234 -65l-52 -120c-45 28 -109 50 -173 50
c-100 0 -143 -73 -155 -192l-30 -298h297z" />
    <glyph glyph-name="uni01B5" unicode="&#x1b5;" horiz-adv-x="1314" 
d="M1057 773v-148h-363l-359 -473h858v-152h-1072v124l385 506h-249v148h362l358 470h-846v152h1059v-124l-383 -503h250z" />
    <glyph glyph-name="uni01B6" unicode="&#x1b6;" horiz-adv-x="1055" 
d="M853 537v-115h-287l-246 -287h613v-135h-811v108l277 319h-191v115h289l236 270h-593v135h784v-109l-258 -301h187z" />
    <glyph glyph-name="uni01CD" unicode="&#x1cd;" horiz-adv-x="1421" 
d="M810 1400l575 -1400h-172l-159 390h-693l-158 -390h-167l575 1400h199zM708 1241l-285 -699h570zM376 1794h160l175 -189l174 189h160l-234 -288h-200z" />
    <glyph glyph-name="uni01CE" unicode="&#x1ce;" horiz-adv-x="1246" 
d="M1071 947v-947h-149v141c-75 -97 -190 -160 -346 -160c-266 0 -473 208 -473 493c0 284 207 492 473 492c156 0 271 -64 346 -160v141h149zM594 826c-203 0 -339 -157 -339 -352c0 -196 138 -353 339 -353c197 0 337 152 337 353c0 200 -140 352 -337 352zM276 1379h160
l175 -189l174 189h160l-234 -288h-200z" />
    <glyph glyph-name="uni01CF" unicode="&#x1cf;" horiz-adv-x="565" 
d="M363 1400v-1400h-161v1400h161zM-53 1794h160l175 -189l174 189h160l-234 -288h-200z" />
    <glyph glyph-name="uni01D0" unicode="&#x1d0;" horiz-adv-x="500" 
d="M325 947v-947h-150v947h150zM-85 1379h160l175 -189l174 189h160l-234 -288h-200z" />
    <glyph glyph-name="uni01D1" unicode="&#x1d1;" horiz-adv-x="1689" 
d="M844 1420c417 0 723 -300 723 -720s-306 -720 -723 -720c-416 0 -723 300 -723 720s307 720 723 720zM844 1265c-314 0 -554 -228 -554 -565s240 -565 554 -565c315 0 555 228 555 565s-240 565 -555 565zM509 1794h160l175 -189l174 189h160l-234 -288h-200z" />
    <glyph glyph-name="uni01D2" unicode="&#x1d2;" horiz-adv-x="1203" 
d="M601 966c285 0 499 -212 499 -492c0 -281 -214 -493 -499 -493s-498 212 -498 493c0 280 213 492 498 492zM601 826c-197 0 -346 -148 -346 -352c0 -205 149 -353 346 -353c196 0 346 148 346 353c0 204 -150 352 -346 352zM266 1379h160l175 -189l174 189h160l-234 -288
h-200z" />
    <glyph glyph-name="uni01D3" unicode="&#x1d3;" horiz-adv-x="1517" 
d="M1335 1400v-852c0 -380 -257 -567 -577 -567s-576 187 -576 567v852h160v-840c0 -293 177 -425 416 -425s416 132 416 425v840h161zM423 1794h160l175 -189l174 189h160l-234 -288h-200z" />
    <glyph glyph-name="uni01D4" unicode="&#x1d4;" horiz-adv-x="1188" 
d="M1024 947v-552c0 -281 -202 -414 -430 -414c-229 0 -430 133 -430 414v552h149v-538c0 -196 119 -288 281 -288s280 92 280 288v538h150zM259 1379h160l175 -189l174 189h160l-234 -288h-200z" />
    <glyph glyph-name="uni01D5" unicode="&#x1d5;" horiz-adv-x="1517" 
d="M1335 1400v-852c0 -380 -257 -567 -577 -567s-576 187 -576 567v852h160v-840c0 -293 177 -425 416 -425s416 132 416 425v840h161zM459 1924v121h598v-121h-598zM555 1758c59 0 106 -47 106 -107s-47 -105 -106 -105c-60 0 -106 45 -106 105s46 107 106 107zM961 1758
c59 0 106 -47 106 -107s-47 -105 -106 -105c-60 0 -105 45 -105 105s45 107 105 107z" />
    <glyph glyph-name="uni01D6" unicode="&#x1d6;" horiz-adv-x="1188" 
d="M1024 947v-552c0 -281 -202 -414 -430 -414c-229 0 -430 133 -430 414v552h149v-538c0 -196 119 -288 281 -288s280 92 280 288v538h150zM391 1343c59 0 106 -47 106 -107s-47 -105 -106 -105c-60 0 -106 45 -106 105s46 107 106 107zM797 1343c59 0 106 -47 106 -107
s-47 -105 -106 -105c-60 0 -105 45 -105 105s45 107 105 107zM295 1510v121h598v-121h-598z" />
    <glyph glyph-name="uni01D7" unicode="&#x1d7;" horiz-adv-x="1517" 
d="M1335 1400v-852c0 -380 -257 -567 -577 -567s-576 187 -576 567v852h160v-840c0 -293 177 -425 416 -425s416 132 416 425v840h161zM765 1906h-148l209 300h190zM555 1758c59 0 106 -47 106 -107s-47 -105 -106 -105c-60 0 -106 45 -106 105s46 107 106 107zM961 1758
c59 0 106 -47 106 -107s-47 -105 -106 -105c-60 0 -105 45 -105 105s45 107 105 107z" />
    <glyph glyph-name="uni01D8" unicode="&#x1d8;" horiz-adv-x="1188" 
d="M1024 947v-552c0 -281 -202 -414 -430 -414c-229 0 -430 133 -430 414v552h149v-538c0 -196 119 -288 281 -288s280 92 280 288v538h150zM391 1343c59 0 106 -47 106 -107s-47 -105 -106 -105c-60 0 -106 45 -106 105s46 107 106 107zM797 1343c59 0 106 -47 106 -107
s-47 -105 -106 -105c-60 0 -105 45 -105 105s45 107 105 107zM601 1492h-148l209 300h190z" />
    <glyph glyph-name="uni01D9" unicode="&#x1d9;" horiz-adv-x="1517" 
d="M1335 1400v-852c0 -380 -257 -567 -577 -567s-576 187 -576 567v852h160v-840c0 -293 177 -425 416 -425s416 132 416 425v840h161zM423 2193h160l175 -189l174 189h160l-234 -288h-200zM555 1758c59 0 106 -47 106 -107s-47 -105 -106 -105c-60 0 -106 45 -106 105
s46 107 106 107zM961 1758c59 0 106 -47 106 -107s-47 -105 -106 -105c-60 0 -105 45 -105 105s45 107 105 107z" />
    <glyph glyph-name="uni01DA" unicode="&#x1da;" horiz-adv-x="1188" 
d="M1024 947v-552c0 -281 -202 -414 -430 -414c-229 0 -430 133 -430 414v552h149v-538c0 -196 119 -288 281 -288s280 92 280 288v538h150zM391 1343c59 0 106 -47 106 -107s-47 -105 -106 -105c-60 0 -106 45 -106 105s46 107 106 107zM797 1343c59 0 106 -47 106 -107
s-47 -105 -106 -105c-60 0 -105 45 -105 105s45 107 105 107zM259 1779h160l175 -189l174 189h160l-234 -288h-200z" />
    <glyph glyph-name="uni01DB" unicode="&#x1db;" horiz-adv-x="1517" 
d="M1335 1400v-852c0 -380 -257 -567 -577 -567s-576 187 -576 567v852h160v-840c0 -293 177 -425 416 -425s416 132 416 425v840h161zM741 1906l-251 300h189l210 -300h-148zM555 1758c59 0 106 -47 106 -107s-47 -105 -106 -105c-60 0 -106 45 -106 105s46 107 106 107z
M961 1758c59 0 106 -47 106 -107s-47 -105 -106 -105c-60 0 -105 45 -105 105s45 107 105 107z" />
    <glyph glyph-name="uni01DC" unicode="&#x1dc;" horiz-adv-x="1188" 
d="M1024 947v-552c0 -281 -202 -414 -430 -414c-229 0 -430 133 -430 414v552h149v-538c0 -196 119 -288 281 -288s280 92 280 288v538h150zM391 1343c59 0 106 -47 106 -107s-47 -105 -106 -105c-60 0 -106 45 -106 105s46 107 106 107zM797 1343c59 0 106 -47 106 -107
s-47 -105 -106 -105c-60 0 -105 45 -105 105s45 107 105 107zM577 1492l-251 300h189l210 -300h-148z" />
    <glyph glyph-name="uni01E2" unicode="&#x1e2;" horiz-adv-x="2283" 
d="M2122 151v-151h-985v365h-638l-276 -365h-194l1064 1400h1020v-151h-815v-469h790v-150h-790v-479h824zM614 517h523v690zM1226 1590v121h598v-121h-598z" />
    <glyph glyph-name="uni01E3" unicode="&#x1e3;" horiz-adv-x="1800" 
d="M1252 965c257 0 442 -200 445 -488c0 -20 -2 -39 -3 -56h-759c21 -204 163 -309 335 -309c117 0 220 46 300 119l79 -102c-117 -113 -249 -148 -388 -148c-166 0 -303 69 -388 186c-86 -105 -220 -186 -403 -186c-230 0 -367 119 -367 285c0 163 137 279 390 279h290v7
c0 190 -102 279 -282 279c-115 0 -206 -45 -274 -95l-70 111c106 80 229 119 363 119c171 0 300 -58 360 -199c76 121 215 198 372 198zM493 113c118 0 243 61 322 163c-17 45 -27 93 -32 145h-274c-181 0 -247 -70 -247 -155c0 -84 79 -153 231 -153zM1249 833
c-175 0 -288 -121 -312 -291h607c-18 176 -135 291 -295 291zM596 1175v121h598v-121h-598z" />
    <glyph glyph-name="Gcaron" unicode="&#x1e6;" horiz-adv-x="1639" 
d="M844 1420c222 0 415 -88 543 -235l-119 -114c-99 120 -250 194 -424 194c-314 0 -554 -228 -554 -565s240 -565 547 -565c296 0 479 176 504 463h-436v150h610c1 -14 2 -28 2 -41c0 -408 -258 -726 -680 -726c-368 0 -716 266 -716 719c0 421 310 720 723 720zM487 1794
h160l175 -189l174 189h160l-234 -288h-200z" />
    <glyph glyph-name="gcaron" unicode="&#x1e7;" horiz-adv-x="1235" 
d="M572 966c153 0 266 -63 338 -161v142h150v-882c0 -309 -208 -480 -501 -480c-151 0 -303 47 -399 127l66 120c90 -68 205 -111 333 -111c205 0 351 117 351 338v97c-72 -99 -185 -161 -338 -161c-266 0 -469 199 -469 486c0 286 203 485 469 485zM589 826
c-201 0 -334 -154 -334 -345c0 -192 133 -346 334 -346c195 0 334 149 334 346c0 195 -139 345 -334 345zM269 1379h160l175 -189l174 189h160l-234 -288h-200z" />
    <glyph glyph-name="Aringacute" unicode="&#x1fa;" horiz-adv-x="1421" 
d="M203 0h-167l553 1348c-65 39 -108 110 -108 191c0 123 103 224 227 224c125 0 228 -101 228 -224c0 -79 -42 -149 -105 -189l554 -1350h-172l-159 390h-693zM708 1243l-285 -701h570zM708 1409c70 0 128 57 128 130c0 72 -58 129 -128 129s-127 -57 -127 -129
c0 -73 57 -130 127 -130zM715 1823h-148l209 300h190z" />
    <glyph glyph-name="aringacute" unicode="&#x1fb;" horiz-adv-x="1246" 
d="M1071 947v-947h-149v141c-75 -97 -190 -160 -346 -160c-266 0 -473 208 -473 493c0 284 207 492 473 492c156 0 271 -64 346 -160v141h149zM594 826c-203 0 -339 -157 -339 -352c0 -196 138 -353 339 -353c197 0 337 152 337 353c0 200 -140 352 -337 352zM595 1038
c-124 0 -227 101 -227 225c0 123 103 224 227 224c125 0 228 -101 228 -224c0 -124 -103 -225 -228 -225zM595 1133c70 0 128 57 128 130c0 72 -58 129 -128 129s-127 -57 -127 -129c0 -73 57 -130 127 -130zM603 1545h-148l209 300h190z" />
    <glyph glyph-name="AEacute" unicode="&#x1fc;" horiz-adv-x="2283" 
d="M2122 151v-151h-985v365h-638l-276 -365h-194l1064 1400h1020v-151h-815v-469h790v-150h-790v-479h824zM614 517h523v690zM1532 1507h-148l209 300h190z" />
    <glyph glyph-name="aeacute" unicode="&#x1fd;" horiz-adv-x="1800" 
d="M1252 965c257 0 442 -200 445 -488c0 -20 -2 -39 -3 -56h-759c21 -204 163 -309 335 -309c117 0 220 46 300 119l79 -102c-117 -113 -249 -148 -388 -148c-166 0 -303 69 -388 186c-86 -105 -220 -186 -403 -186c-230 0 -367 119 -367 285c0 163 137 279 390 279h290v7
c0 190 -102 279 -282 279c-115 0 -206 -45 -274 -95l-70 111c106 80 229 119 363 119c171 0 300 -58 360 -199c76 121 215 198 372 198zM493 113c118 0 243 61 322 163c-17 45 -27 93 -32 145h-274c-181 0 -247 -70 -247 -155c0 -84 79 -153 231 -153zM1249 833
c-175 0 -288 -121 -312 -291h607c-18 176 -135 291 -295 291zM913 1092h-148l209 300h190z" />
    <glyph glyph-name="Oslashacute" unicode="&#x1fe;" horiz-adv-x="1689" 
d="M844 1420c179 0 338 -56 461 -153l152 152l106 -106l-152 -152c98 -122 156 -280 156 -461c0 -420 -306 -720 -723 -720c-180 0 -338 56 -461 153l-151 -151l-107 105l151 151c-98 122 -155 281 -155 462c0 420 307 720 723 720zM1399 700c0 135 -39 252 -105 344
l-796 -796c93 -73 213 -113 346 -113c315 0 555 228 555 565zM844 1265c-314 0 -554 -228 -554 -565c0 -135 38 -252 104 -344l796 796c-94 72 -213 113 -346 113zM851 1507h-148l209 300h190z" />
    <glyph glyph-name="oslashacute" unicode="&#x1ff;" horiz-adv-x="1203" 
d="M601 966c117 0 222 -36 306 -98l111 111l90 -90l-110 -110c64 -83 102 -188 102 -305c0 -281 -214 -493 -499 -493c-117 0 -221 35 -304 97l-111 -111l-91 89l110 110c-65 83 -102 190 -102 308c0 280 213 492 498 492zM601 826c-197 0 -346 -148 -346 -352
c0 -77 21 -145 57 -201l491 491c-57 39 -126 62 -202 62zM947 474c0 75 -21 142 -56 198l-491 -491c56 -38 125 -60 201 -60c196 0 346 148 346 353zM619 1092h-148l209 300h190z" />
    <glyph glyph-name="Scommaaccent" unicode="&#x218;" horiz-adv-x="1346" 
d="M1198 1265l-82 -130c-113 77 -254 131 -422 131c-211 0 -362 -95 -362 -253c0 -130 105 -201 323 -227l133 -16c231 -28 437 -126 437 -368c0 -277 -252 -421 -554 -421c-203 0 -418 72 -550 180l88 128c97 -82 279 -156 461 -156c217 0 388 88 388 255
c0 136 -117 204 -339 229l-141 16c-239 27 -413 138 -413 370c0 266 237 415 530 415c213 0 374 -63 503 -153zM636 -88h164l-74 -350h-132z" />
    <glyph glyph-name="scommaaccent" unicode="&#x219;" horiz-adv-x="987" 
d="M876 862l-65 -116c-61 42 -182 89 -310 89c-135 0 -224 -57 -224 -149c0 -79 69 -118 193 -133l112 -14c201 -26 318 -109 318 -264c0 -180 -162 -293 -417 -293c-122 0 -275 30 -395 121l69 112c72 -56 168 -103 328 -103s261 53 261 153c0 76 -64 122 -198 138l-113 13
c-213 26 -313 121 -313 262c0 179 151 287 378 287c149 0 285 -42 376 -103zM438 -88h164l-74 -350h-132z" />
    <glyph glyph-name="uni021A" unicode="&#x21a;" horiz-adv-x="1212" 
d="M1172 1400v-152h-486v-1248h-160v1248h-486v152h1132zM545 -88h164l-74 -350h-132z" />
    <glyph glyph-name="uni021B" unicode="&#x21b;" horiz-adv-x="906" 
d="M818 947v-135h-409v-478c0 -148 78 -213 188 -213c73 0 144 27 199 67l70 -113c-71 -54 -165 -94 -281 -94c-204 0 -325 112 -325 350v481h-207v135h207v301h149v-301h409zM482 -88h164l-74 -350h-132z" />
    <glyph glyph-name="uni0232" unicode="&#x232;" horiz-adv-x="1287" 
d="M1276 1400l-551 -813v-587h-160v589l-554 811h192l443 -664l443 664h187zM347 1590v121h598v-121h-598z" />
    <glyph glyph-name="uni0233" unicode="&#x233;" horiz-adv-x="1054" 
d="M1039 947l-771 -1351h-165l353 609l-435 742h167l353 -594l334 594h164zM233 1175v121h598v-121h-598z" />
    <glyph glyph-name="uni0237" unicode="&#x237;" horiz-adv-x="504" 
d="M329 947v-1103c0 -168 -93 -259 -236 -259c-49 0 -102 13 -136 32l36 129c24 -12 55 -20 87 -20c61 0 99 38 99 125v1096h150z" />
    <glyph glyph-name="uni0259" unicode="&#x259;" horiz-adv-x="1121" 
d="M548 -19c-257 0 -443 201 -445 489c0 19 1 39 3 56h759c-21 204 -164 309 -335 309c-119 0 -223 -47 -305 -123l-75 106c118 113 250 148 389 148c280 0 479 -199 479 -492c0 -290 -200 -493 -470 -493zM551 114c175 0 288 120 312 291h-608c19 -177 135 -291 296 -291z
" />
    <glyph glyph-name="uni02BB" unicode="&#x2bb;" horiz-adv-x="494" 
d="M307 933h-174l105 507h129z" />
    <glyph glyph-name="afii57929" unicode="&#x2bc;" horiz-adv-x="494" 
d="M187 1440h174l-105 -507h-129z" />
    <glyph glyph-name="uni02BE" unicode="&#x2be;" horiz-adv-x="540" 
d="M142 746v138c112 0 205 96 205 215c0 121 -93 216 -205 216v138c193 0 350 -157 350 -354c0 -195 -157 -353 -350 -353z" />
    <glyph glyph-name="uni02BF" unicode="&#x2bf;" horiz-adv-x="540" 
d="M398 1453v-138c-112 0 -205 -96 -205 -215c0 -121 93 -216 205 -216v-138c-193 0 -350 157 -350 354c0 195 157 353 350 353z" />
    <glyph glyph-name="circumflex" unicode="&#x2c6;" horiz-adv-x="939" 
d="M804 1093h-160l-175 189l-174 -189h-160l234 288h200z" />
    <glyph glyph-name="caron" unicode="&#x2c7;" horiz-adv-x="939" 
d="M135 1379h160l175 -189l174 189h160l-234 -288h-200z" />
    <glyph glyph-name="breve" unicode="&#x2d8;" horiz-adv-x="939" 
d="M128 1366l120 37c38 -129 115 -191 222 -191s183 62 221 191l120 -37c-51 -183 -174 -280 -341 -280s-291 97 -342 280z" />
    <glyph glyph-name="dotaccent" unicode="&#x2d9;" horiz-adv-x="561" 
d="M280 1389c59 0 106 -46 106 -106s-47 -105 -106 -105c-60 0 -105 45 -105 105s45 106 105 106z" />
    <glyph glyph-name="ring" unicode="&#x2da;" horiz-adv-x="939" 
d="M470 1072c-125 0 -227 101 -227 225c0 123 102 224 227 224s228 -101 228 -224c0 -124 -103 -225 -228 -225zM470 1167c70 0 128 57 128 130c0 72 -58 129 -128 129s-127 -57 -127 -129c0 -73 57 -130 127 -130z" />
    <glyph glyph-name="ogonek" unicode="&#x2db;" horiz-adv-x="1088" 
d="M826 -228l80 -97c-62 -59 -145 -90 -232 -90c-154 0 -256 88 -256 219c0 140 117 223 302 299l66 -84c-155 -64 -227 -121 -227 -201c0 -61 48 -104 124 -104c55 0 102 20 143 58z" />
    <glyph glyph-name="tilde" unicode="&#x2dc;" horiz-adv-x="939" 
d="M206 1149l-88 85c60 74 124 111 219 111c135 0 181 -79 266 -79c50 0 87 22 130 67l89 -85c-60 -74 -125 -111 -219 -111c-134 0 -180 80 -266 80c-50 0 -88 -23 -131 -68z" />
    <glyph glyph-name="hungarumlaut" unicode="&#x2dd;" horiz-adv-x="939" 
d="M609 1092h-147l209 300h189zM226 1092h-147l209 300h189z" />
    <glyph glyph-name="gravecomb" unicode="&#x300;" 
d="M-632 1092l-251 300h189l210 -300h-148z" />
    <glyph glyph-name="acutecomb" unicode="&#x301;" 
d="M-584 1092h-148l209 300h190z" />
    <glyph glyph-name="uni0302" unicode="&#x302;" 
d="M-268 1093h-160l-174 189l-175 -189h-160l235 288h200z" />
    <glyph glyph-name="tildecomb" unicode="&#x303;" 
d="M-858 1149l-88 85c60 74 124 111 219 111c135 0 181 -79 266 -79c50 0 87 22 130 67l89 -85c-60 -74 -125 -111 -219 -111c-134 0 -180 80 -266 80c-50 0 -88 -23 -131 -68z" />
    <glyph glyph-name="uni0304" unicode="&#x304;" 
d="M-901 1175v121h598v-121h-598z" />
    <glyph glyph-name="uni0306" unicode="&#x306;" 
d="M-943 1366l120 37c38 -129 114 -191 221 -191c108 0 184 62 222 191l120 -37c-51 -184 -175 -280 -342 -280c-166 0 -290 96 -341 280z" />
    <glyph glyph-name="uni0307" unicode="&#x307;" 
d="M-602 1389c59 0 106 -46 106 -106s-47 -105 -106 -105c-60 0 -105 45 -105 105s45 106 105 106z" />
    <glyph glyph-name="uni0308" unicode="&#x308;" 
d="M-805 1343c59 0 106 -47 106 -107s-47 -105 -106 -105c-60 0 -106 45 -106 105s46 107 106 107zM-399 1343c59 0 106 -47 106 -107s-47 -105 -106 -105c-60 0 -105 45 -105 105s45 107 105 107z" />
    <glyph glyph-name="uni030A" unicode="&#x30a;" 
d="M-603 1072c-124 0 -227 101 -227 225c0 123 103 224 227 224c125 0 228 -101 228 -224c0 -124 -103 -225 -228 -225zM-603 1167c70 0 128 57 128 130c0 72 -58 129 -128 129s-127 -57 -127 -129c0 -73 57 -130 127 -130z" />
    <glyph glyph-name="uni030B" unicode="&#x30b;" 
d="M-369 1092h-150l215 300h175zM-710 1092h-153l200 300h169z" />
    <glyph glyph-name="uni030C" unicode="&#x30c;" 
d="M-937 1379h160l175 -189l174 189h160l-234 -288h-200z" />
    <glyph glyph-name="uni0312" unicode="&#x312;" 
d="M-529 1092h-164l74 351h132z" />
    <glyph glyph-name="dotbelowcomb" unicode="&#x323;" 
d="M-601 -159c59 0 106 -46 106 -106s-47 -105 -106 -105c-60 0 -105 45 -105 105s45 106 105 106z" />
    <glyph glyph-name="uni0326" unicode="&#x326;" 
d="M-670 -88h164l-74 -350h-132z" />
    <glyph glyph-name="uni0327" unicode="&#x327;" 
d="M-471 5l-103 -328h-156l109 329z" />
    <glyph glyph-name="uni0328" unicode="&#x328;" 
d="M-434 -228l80 -97c-62 -59 -145 -90 -232 -90c-157 0 -261 88 -261 206c0 145 125 223 335 300l14 -45c-134 -73 -203 -138 -203 -228c0 -61 48 -104 124 -104c55 0 102 20 143 58z" />
    <glyph glyph-name="uni032E" unicode="&#x32e;" 
d="M-943 -136l120 36c38 -129 115 -191 222 -191s183 62 221 191l120 -36c-51 -184 -174 -281 -341 -281s-291 97 -342 281z" />
    <glyph glyph-name="uni0331" unicode="&#x331;" 
d="M-899 -324v122h598v-122h-598z" />
    <glyph glyph-name="uni0335" unicode="&#x335;" 
d="M-242 597v-136h-718v136h718z" />
    <glyph glyph-name="uni0336" unicode="&#x336;" 
d="M148 597v-136h-1497v136h1497z" />
    <glyph glyph-name="uni0394" unicode="&#x394;" horiz-adv-x="1412" 
d="M805 1402l526 -1278v-124h-1250v124l526 1278h198zM706 1239l-444 -1087h888z" />
    <glyph glyph-name="uni03A9" unicode="&#x3a9;" horiz-adv-x="1720" 
d="M81 152h342c-174 114 -286 307 -286 543c0 422 306 725 723 725c416 0 723 -303 723 -725c0 -236 -112 -429 -287 -543h343v-152h-602v131c223 71 378 278 378 557c0 345 -240 577 -555 577s-555 -232 -555 -577c0 -279 155 -486 378 -557v-131h-602v152z" />
    <glyph glyph-name="uni03BC" unicode="&#x3bc;" horiz-adv-x="1201" 
d="M312 -400h-148v1347h149v-538c0 -180 100 -286 273 -286c159 0 290 110 290 290v534h150v-947h-148v135c-77 -113 -203 -154 -319 -154c-97 0 -191 33 -247 93v-474z" />
    <glyph glyph-name="pi" unicode="&#x3c0;" horiz-adv-x="1201" 
d="M1037 947v-947h-150v812h-562v-812h-150v947h862z" />
    <glyph glyph-name="uni1E0C" unicode="&#x1e0c;" horiz-adv-x="1598" 
d="M202 1400h527c457 0 747 -273 747 -700s-290 -700 -747 -700h-527v1400zM729 1248h-366v-1096h366c379 0 578 220 578 548c0 330 -199 548 -578 548zM761 -159c59 0 106 -46 106 -106s-47 -105 -106 -105c-60 0 -105 45 -105 105s45 106 105 106z" />
    <glyph glyph-name="uni1E0D" unicode="&#x1e0d;" horiz-adv-x="1246" 
d="M576 966c156 0 271 -64 346 -160v634h149v-1440h-149v141c-75 -97 -190 -160 -346 -160c-266 0 -473 208 -473 493c0 284 207 492 473 492zM594 826c-203 0 -339 -157 -339 -352c0 -196 138 -353 339 -353c197 0 337 152 337 353c0 200 -140 352 -337 352zM617 -159
c59 0 106 -46 106 -106s-47 -105 -106 -105c-60 0 -105 45 -105 105s45 106 105 106z" />
    <glyph glyph-name="uni1E0E" unicode="&#x1e0e;" horiz-adv-x="1598" 
d="M202 1400h527c457 0 747 -273 747 -700s-290 -700 -747 -700h-527v1400zM729 1248h-366v-1096h366c379 0 578 220 578 548c0 330 -199 548 -578 548zM464 -324v122h598v-122h-598z" />
    <glyph glyph-name="uni1E0F" unicode="&#x1e0f;" horiz-adv-x="1246" 
d="M576 966c156 0 271 -64 346 -160v634h149v-1440h-149v141c-75 -97 -190 -160 -346 -160c-266 0 -473 208 -473 493c0 284 207 492 473 492zM594 826c-203 0 -339 -157 -339 -352c0 -196 138 -353 339 -353c197 0 337 152 337 353c0 200 -140 352 -337 352zM319 -324v122
h598v-122h-598z" />
    <glyph glyph-name="uni1E24" unicode="&#x1e24;" horiz-adv-x="1573" 
d="M363 1400v-619h847v619h161v-1400h-161v629h-847v-629h-161v1400h161zM785 -159c59 0 106 -46 106 -106s-47 -105 -106 -105c-60 0 -105 45 -105 105s45 106 105 106z" />
    <glyph glyph-name="uni1E25" unicode="&#x1e25;" horiz-adv-x="1201" 
d="M325 1440v-625c78 110 202 151 317 151c234 0 395 -150 395 -379v-587h-149v538c0 180 -100 286 -273 286c-159 0 -290 -110 -290 -290v-534h-150v1440h150zM607 -159c59 0 106 -46 106 -106s-47 -105 -106 -105c-60 0 -105 45 -105 105s45 106 105 106z" />
    <glyph glyph-name="uni1E28" unicode="&#x1e28;" horiz-adv-x="1573" 
d="M363 1400v-619h847v619h161v-1400h-161v629h-847v-629h-4l-101 -323h-163l109 323h-2v1400h161z" />
    <glyph glyph-name="uni1E29" unicode="&#x1e29;" horiz-adv-x="1201" 
d="M325 1440v-625c78 110 202 151 317 151c234 0 395 -150 395 -379v-587h-149v538c0 180 -100 286 -273 286c-159 0 -290 -110 -290 -290v-534h-2l-101 -323h-156l111 323h-2v1440h150z" />
    <glyph glyph-name="uni1E2A" unicode="&#x1e2a;" horiz-adv-x="1573" 
d="M363 1400v-619h847v619h161v-1400h-161v629h-847v-629h-161v1400h161zM444 -136l120 36c38 -129 115 -191 222 -191s183 62 221 191l120 -36c-51 -184 -174 -281 -341 -281s-291 97 -342 281z" />
    <glyph glyph-name="uni1E2B" unicode="&#x1e2b;" horiz-adv-x="1201" 
d="M325 1440v-625c78 110 202 151 317 151c234 0 395 -150 395 -379v-587h-149v538c0 180 -100 286 -273 286c-159 0 -290 -110 -290 -290v-534h-150v1440h150zM265 -136l120 36c38 -129 115 -191 222 -191s183 62 221 191l120 -36c-51 -184 -174 -281 -341 -281
s-291 97 -342 281z" />
    <glyph glyph-name="uni1E32" unicode="&#x1e32;" horiz-adv-x="1388" 
d="M1145 0l-616 628h-166v-628h-161v1400h161v-620h169l581 620h208l-658 -687l701 -713h-219zM693 -159c59 0 106 -46 106 -106s-47 -105 -106 -105c-60 0 -105 45 -105 105s45 106 105 106z" />
    <glyph glyph-name="uni1E33" unicode="&#x1e33;" horiz-adv-x="1058" 
d="M325 1440v-877h137l365 384h187l-430 -446l437 -501h-189l-371 427h-136v-427h-150v1440h150zM559 -159c59 0 106 -46 106 -106s-47 -105 -106 -105c-60 0 -105 45 -105 105s45 106 105 106z" />
    <glyph glyph-name="uni1E36" unicode="&#x1e36;" horiz-adv-x="1213" 
d="M1173 152v-152h-971v1400h161v-1248h810zM677 -159c59 0 106 -46 106 -106s-47 -105 -106 -105c-60 0 -105 45 -105 105s45 106 105 106z" />
    <glyph glyph-name="uni1E37" unicode="&#x1e37;" horiz-adv-x="500" 
d="M325 1440v-1440h-150v1440h150zM250 -159c59 0 106 -46 106 -106s-47 -105 -106 -105c-60 0 -105 45 -105 105s45 106 105 106z" />
    <glyph glyph-name="uni1E38" unicode="&#x1e38;" horiz-adv-x="1213" 
d="M1173 152v-152h-971v1400h161v-1248h810zM677 -159c59 0 106 -46 106 -106s-47 -105 -106 -105c-60 0 -105 45 -105 105s45 106 105 106zM-17 1590v121h598v-121h-598z" />
    <glyph glyph-name="uni1E39" unicode="&#x1e39;" horiz-adv-x="500" 
d="M325 1440v-1440h-150v1440h150zM-67 1610v121h598v-121h-598zM250 -159c59 0 106 -46 106 -106s-47 -105 -106 -105c-60 0 -105 45 -105 105s45 106 105 106z" />
    <glyph glyph-name="uni1E3A" unicode="&#x1e3a;" horiz-adv-x="1213" 
d="M1173 152v-152h-971v1400h161v-1248h810zM380 -324v122h598v-122h-598z" />
    <glyph glyph-name="uni1E3B" unicode="&#x1e3b;" horiz-adv-x="500" 
d="M325 1440v-1440h-150v1440h150zM-48 -324v122h598v-122h-598z" />
    <glyph glyph-name="uni1E40" unicode="&#x1e40;" horiz-adv-x="1870" 
d="M1668 1400v-1400h-161v1220l-488 -1065h-169l-487 1057v-1212h-161v1400h244l489 -1058l488 1058h245zM921 1764c61 0 110 -47 110 -109s-49 -109 -110 -109c-62 0 -109 47 -109 109s47 109 109 109z" />
    <glyph glyph-name="uni1E41" unicode="&#x1e41;" horiz-adv-x="1914" 
d="M1354 966c235 0 396 -150 396 -379v-587h-149v538c0 180 -100 286 -274 286c-159 0 -290 -110 -290 -290v-534h-149v538c0 180 -100 286 -273 286c-159 0 -290 -110 -290 -290v-534h-150v947h148v-135c77 113 203 154 319 154c165 0 294 -75 355 -199
c76 147 224 199 357 199zM963 1400c59 0 106 -46 106 -106s-47 -105 -106 -105c-60 0 -105 45 -105 105s45 106 105 106z" />
    <glyph glyph-name="uni1E42" unicode="&#x1e42;" horiz-adv-x="1870" 
d="M1668 1400v-1400h-161v1220l-488 -1065h-169l-487 1057v-1212h-161v1400h244l489 -1058l488 1058h245zM934 -159c59 0 106 -46 106 -106s-47 -105 -106 -105c-60 0 -105 45 -105 105s45 106 105 106z" />
    <glyph glyph-name="uni1E43" unicode="&#x1e43;" horiz-adv-x="1914" 
d="M1354 966c235 0 396 -150 396 -379v-587h-149v538c0 180 -100 286 -274 286c-159 0 -290 -110 -290 -290v-534h-149v538c0 180 -100 286 -273 286c-159 0 -290 -110 -290 -290v-534h-150v947h148v-135c77 113 203 154 319 154c165 0 294 -75 355 -199
c76 147 224 199 357 199zM963 -159c59 0 106 -46 106 -106s-47 -105 -106 -105c-60 0 -105 45 -105 105s45 106 105 106z" />
    <glyph glyph-name="uni1E44" unicode="&#x1e44;" horiz-adv-x="1577" 
d="M1375 1400v-1400h-145l-867 1124v-1124h-161v1400h145l867 -1124v1124h161zM774 1764c61 0 110 -47 110 -109s-49 -109 -110 -109c-62 0 -109 47 -109 109s47 109 109 109z" />
    <glyph glyph-name="uni1E45" unicode="&#x1e45;" horiz-adv-x="1201" 
d="M642 966c234 0 395 -150 395 -379v-587h-149v538c0 180 -100 286 -273 286c-159 0 -290 -110 -290 -290v-534h-150v947h148v-135c77 113 203 154 319 154zM617 1389c59 0 106 -46 106 -106s-47 -105 -106 -105c-60 0 -105 45 -105 105s45 106 105 106z" />
    <glyph glyph-name="uni1E46" unicode="&#x1e46;" horiz-adv-x="1577" 
d="M1375 1400v-1400h-145l-867 1124v-1124h-161v1400h145l867 -1124v1124h161zM782 -159c59 0 106 -46 106 -106s-47 -105 -106 -105c-60 0 -105 45 -105 105s45 106 105 106z" />
    <glyph glyph-name="uni1E47" unicode="&#x1e47;" horiz-adv-x="1201" 
d="M642 966c234 0 395 -150 395 -379v-587h-149v538c0 180 -100 286 -273 286c-159 0 -290 -110 -290 -290v-534h-150v947h148v-135c77 113 203 154 319 154zM605 -159c59 0 106 -46 106 -106s-47 -105 -106 -105c-60 0 -105 45 -105 105s45 106 105 106z" />
    <glyph glyph-name="uni1E48" unicode="&#x1e48;" horiz-adv-x="1577" 
d="M1375 1400v-1400h-145l-867 1124v-1124h-161v1400h145l867 -1124v1124h161zM485 -324v122h598v-122h-598z" />
    <glyph glyph-name="uni1E49" unicode="&#x1e49;" horiz-adv-x="1201" 
d="M642 966c234 0 395 -150 395 -379v-587h-149v538c0 180 -100 286 -273 286c-159 0 -290 -110 -290 -290v-534h-150v947h148v-135c77 113 203 154 319 154zM307 -324v122h598v-122h-598z" />
    <glyph glyph-name="uni1E58" unicode="&#x1e58;" horiz-adv-x="1353" 
d="M202 1400h549c315 0 489 -142 489 -395c0 -242 -188 -396 -487 -396h-23l503 -609h-200l-493 609h-177v-609h-161v1400zM749 1249h-386v-494h386c213 0 324 87 324 250c0 162 -114 244 -324 244zM649 1764c61 0 110 -47 110 -109s-49 -109 -110 -109
c-62 0 -109 47 -109 109s47 109 109 109z" />
    <glyph glyph-name="uni1E59" unicode="&#x1e59;" horiz-adv-x="830" 
d="M604 966c68 0 124 -9 174 -32l-36 -147c-46 25 -109 38 -164 38c-148 0 -254 -116 -254 -295v-530h-149v947h148v-133c65 97 165 152 281 152zM475 1389c59 0 106 -46 106 -106s-47 -105 -106 -105c-60 0 -105 45 -105 105s45 106 105 106z" />
    <glyph glyph-name="uni1E5A" unicode="&#x1e5a;" horiz-adv-x="1353" 
d="M202 1400h549c315 0 489 -142 489 -395c0 -242 -188 -396 -487 -396h-23l503 -609h-200l-493 609h-177v-609h-161v1400zM749 1249h-386v-494h386c213 0 324 87 324 250c0 162 -114 244 -324 244zM665 -159c59 0 106 -46 106 -106s-47 -105 -106 -105
c-60 0 -105 45 -105 105s45 106 105 106z" />
    <glyph glyph-name="uni1E5B" unicode="&#x1e5b;" horiz-adv-x="830" 
d="M604 966c68 0 124 -9 174 -32l-36 -147c-46 25 -109 38 -164 38c-148 0 -254 -116 -254 -295v-530h-149v947h148v-133c65 97 165 152 281 152zM251 -159c59 0 106 -46 106 -106s-47 -105 -106 -105c-60 0 -105 45 -105 105s45 106 105 106z" />
    <glyph glyph-name="uni1E5C" unicode="&#x1e5c;" horiz-adv-x="1353" 
d="M202 1400h549c315 0 489 -142 489 -395c0 -242 -188 -396 -487 -396h-23l503 -609h-200l-493 609h-177v-609h-161v1400zM749 1249h-386v-494h386c213 0 324 87 324 250c0 162 -114 244 -324 244zM665 -159c59 0 106 -46 106 -106s-47 -105 -106 -105
c-60 0 -105 45 -105 105s45 106 105 106zM364 1590v121h598v-121h-598z" />
    <glyph glyph-name="uni1E5D" unicode="&#x1e5d;" horiz-adv-x="830" 
d="M604 966c68 0 124 -9 174 -32l-36 -147c-46 25 -109 38 -164 38c-148 0 -254 -116 -254 -295v-530h-149v947h148v-133c65 97 165 152 281 152zM176 1175v121h598v-121h-598zM251 -159c59 0 106 -46 106 -106s-47 -105 -106 -105c-60 0 -105 45 -105 105s45 106 105 106z
" />
    <glyph glyph-name="uni1E5E" unicode="&#x1e5e;" horiz-adv-x="1353" 
d="M202 1400h549c315 0 489 -142 489 -395c0 -242 -188 -396 -487 -396h-23l503 -609h-200l-493 609h-177v-609h-161v1400zM749 1249h-386v-494h386c213 0 324 87 324 250c0 162 -114 244 -324 244zM368 -324v122h598v-122h-598z" />
    <glyph glyph-name="uni1E5F" unicode="&#x1e5f;" horiz-adv-x="830" 
d="M604 966c68 0 124 -9 174 -32l-36 -147c-46 25 -109 38 -164 38c-148 0 -254 -116 -254 -295v-530h-149v947h148v-133c65 97 165 152 281 152zM-47 -324v122h598v-122h-598z" />
    <glyph glyph-name="uni1E62" unicode="&#x1e62;" horiz-adv-x="1346" 
d="M1198 1265l-82 -130c-113 77 -254 131 -422 131c-211 0 -362 -95 -362 -253c0 -130 105 -201 323 -227l133 -16c231 -28 437 -126 437 -368c0 -277 -252 -421 -554 -421c-203 0 -418 72 -550 180l88 128c97 -82 279 -156 461 -156c217 0 388 88 388 255
c0 136 -117 204 -339 229l-141 16c-239 27 -413 138 -413 370c0 266 237 415 530 415c213 0 374 -63 503 -153zM696 -159c59 0 106 -46 106 -106s-47 -105 -106 -105c-60 0 -105 45 -105 105s45 106 105 106z" />
    <glyph glyph-name="uni1E63" unicode="&#x1e63;" horiz-adv-x="987" 
d="M876 862l-65 -116c-61 42 -182 89 -310 89c-135 0 -224 -57 -224 -149c0 -79 69 -118 193 -133l112 -14c201 -26 318 -109 318 -264c0 -180 -162 -293 -417 -293c-122 0 -275 30 -395 121l69 112c72 -56 168 -103 328 -103s261 53 261 153c0 76 -64 122 -198 138l-113 13
c-213 26 -313 121 -313 262c0 179 151 287 378 287c149 0 285 -42 376 -103zM507 -159c59 0 106 -46 106 -106s-47 -105 -106 -105c-60 0 -105 45 -105 105s45 106 105 106z" />
    <glyph glyph-name="uni1E6C" unicode="&#x1e6c;" horiz-adv-x="1212" 
d="M1172 1400v-152h-486v-1248h-160v1248h-486v152h1132zM605 -159c59 0 106 -46 106 -106s-47 -105 -106 -105c-60 0 -105 45 -105 105s45 106 105 106z" />
    <glyph glyph-name="uni1E6D" unicode="&#x1e6d;" horiz-adv-x="906" 
d="M818 947v-135h-409v-478c0 -148 78 -213 188 -213c73 0 144 27 199 67l70 -113c-71 -54 -165 -94 -281 -94c-204 0 -325 112 -325 350v481h-207v135h207v301h149v-301h409zM551 -159c59 0 106 -46 106 -106s-47 -105 -106 -105c-60 0 -105 45 -105 105s45 106 105 106z
" />
    <glyph glyph-name="uni1E6E" unicode="&#x1e6e;" horiz-adv-x="1212" 
d="M1172 1400v-152h-486v-1248h-160v1248h-486v152h1132zM308 -324v122h598v-122h-598z" />
    <glyph glyph-name="uni1E6F" unicode="&#x1e6f;" horiz-adv-x="906" 
d="M818 947v-135h-409v-478c0 -148 78 -213 188 -213c73 0 144 27 199 67l70 -113c-71 -54 -165 -94 -281 -94c-204 0 -325 112 -325 350v481h-207v135h207v301h149v-301h409zM253 -324v122h598v-122h-598z" />
    <glyph glyph-name="Wgrave" unicode="&#x1e80;" horiz-adv-x="2197" 
d="M2139 1400l-455 -1400h-198l-388 1186l-388 -1186h-197l-455 1400h168l387 -1218l396 1218h182l395 -1219l388 1219h165zM1081 1507l-251 300h189l210 -300h-148z" />
    <glyph glyph-name="wgrave" unicode="&#x1e81;" horiz-adv-x="1706" 
d="M937 947l284 -792l285 792h155l-350 -947h-177l-283 787l-282 -787h-174l-350 947h159l283 -791l282 791h168zM823 1092l-251 300h189l210 -300h-148z" />
    <glyph glyph-name="Wacute" unicode="&#x1e82;" horiz-adv-x="2197" 
d="M2139 1400l-455 -1400h-198l-388 1186l-388 -1186h-197l-455 1400h168l387 -1218l396 1218h182l395 -1219l388 1219h165zM1105 1507h-148l209 300h190z" />
    <glyph glyph-name="wacute" unicode="&#x1e83;" horiz-adv-x="1706" 
d="M937 947l284 -792l285 792h155l-350 -947h-177l-283 787l-282 -787h-174l-350 947h159l283 -791l282 791h168zM871 1092h-148l209 300h190z" />
    <glyph glyph-name="Wdieresis" unicode="&#x1e84;" horiz-adv-x="2197" 
d="M2139 1400l-455 -1400h-198l-388 1186l-388 -1186h-197l-455 1400h168l387 -1218l396 1218h182l395 -1219l388 1219h165zM895 1758c59 0 106 -47 106 -107s-47 -105 -106 -105c-60 0 -106 45 -106 105s46 107 106 107zM1301 1758c59 0 106 -47 106 -107
s-47 -105 -106 -105c-60 0 -105 45 -105 105s45 107 105 107z" />
    <glyph glyph-name="wdieresis" unicode="&#x1e85;" horiz-adv-x="1706" 
d="M937 947l284 -792l285 792h155l-350 -947h-177l-283 787l-282 -787h-174l-350 947h159l283 -791l282 791h168zM650 1343c59 0 106 -47 106 -107s-47 -105 -106 -105c-60 0 -106 45 -106 105s46 107 106 107zM1056 1343c59 0 106 -47 106 -107s-47 -105 -106 -105
c-60 0 -105 45 -105 105s45 107 105 107z" />
    <glyph glyph-name="uni1E88" unicode="&#x1e88;" horiz-adv-x="2197" 
d="M2139 1400l-455 -1400h-198l-388 1186l-388 -1186h-197l-455 1400h168l387 -1218l396 1218h182l395 -1219l388 1219h165zM1098 -159c59 0 106 -46 106 -106s-47 -105 -106 -105c-60 0 -105 45 -105 105s45 106 105 106z" />
    <glyph glyph-name="uni1E89" unicode="&#x1e89;" horiz-adv-x="1706" 
d="M937 947l284 -792l285 792h155l-350 -947h-177l-283 787l-282 -787h-174l-350 947h159l283 -791l282 791h168zM852 -159c59 0 106 -46 106 -106s-47 -105 -106 -105c-60 0 -105 45 -105 105s45 106 105 106z" />
    <glyph glyph-name="uni1E92" unicode="&#x1e92;" horiz-adv-x="1314" 
d="M1190 1400v-124l-855 -1124h858v-152h-1072v124l856 1124h-846v152h1059zM656 -159c59 0 106 -46 106 -106s-47 -105 -106 -105c-60 0 -105 45 -105 105s45 106 105 106z" />
    <glyph glyph-name="uni1E93" unicode="&#x1e93;" horiz-adv-x="1055" 
d="M924 947v-109l-604 -703h613v-135h-811v108l610 704h-592v135h784zM528 -159c59 0 106 -46 106 -106s-47 -105 -106 -105c-60 0 -105 45 -105 105s45 106 105 106z" />
    <glyph glyph-name="uni1E94" unicode="&#x1e94;" horiz-adv-x="1314" 
d="M1190 1400v-124l-855 -1124h858v-152h-1072v124l856 1124h-846v152h1059zM359 -324v122h598v-122h-598z" />
    <glyph glyph-name="uni1E95" unicode="&#x1e95;" horiz-adv-x="1055" 
d="M924 947v-109l-604 -703h613v-135h-811v108l610 704h-592v135h784zM230 -324v122h598v-122h-598z" />
    <glyph glyph-name="uni1E96" unicode="&#x1e96;" horiz-adv-x="1201" 
d="M325 1440v-625c78 110 202 151 317 151c234 0 395 -150 395 -379v-587h-149v538c0 180 -100 286 -273 286c-159 0 -290 -110 -290 -290v-534h-150v1440h150zM309 -324v122h598v-122h-598z" />
    <glyph glyph-name="uni1E9E" unicode="&#x1e9e;" horiz-adv-x="1464" 
d="M705 630v120l363 400c-66 69 -169 115 -331 115c-243 0 -394 -136 -394 -350v-915h-161v924c0 277 190 495 558 495c274 0 434 -97 548 -246l-373 -405c243 -28 427 -168 427 -389c0 -245 -232 -397 -509 -397c-135 0 -219 17 -295 42l39 152c62 -23 137 -40 232 -40
c221 0 363 89 363 243c0 158 -144 251 -376 251h-91z" />
    <glyph glyph-name="Ygrave" unicode="&#x1ef2;" horiz-adv-x="1287" 
d="M1276 1400l-551 -813v-587h-160v589l-554 811h192l443 -664l443 664h187zM629 1507l-251 300h189l210 -300h-148z" />
    <glyph glyph-name="ygrave" unicode="&#x1ef3;" horiz-adv-x="1054" 
d="M1039 947l-771 -1351h-165l353 609l-435 742h167l353 -594l334 594h164zM502 1092l-251 300h189l210 -300h-148z" />
    <glyph glyph-name="uni1EF4" unicode="&#x1ef4;" horiz-adv-x="1287" 
d="M1276 1400l-551 -813v-587h-160v589l-554 811h192l443 -664l443 664h187zM644 -159c59 0 106 -46 106 -106s-47 -105 -106 -105c-60 0 -105 45 -105 105s45 106 105 106z" />
    <glyph glyph-name="uni1EF5" unicode="&#x1ef5;" horiz-adv-x="1054" 
d="M1039 947l-771 -1351h-165l353 609l-435 742h167l353 -594l334 594h164zM762 -159c59 0 106 -46 106 -106s-47 -105 -106 -105c-60 0 -105 45 -105 105s45 106 105 106z" />
    <glyph glyph-name="uni2007" unicode="&#x2007;" horiz-adv-x="1419" 
 />
    <glyph glyph-name="uni2008" unicode="&#x2008;" horiz-adv-x="523" 
 />
    <glyph glyph-name="uni2009" unicode="&#x2009;" horiz-adv-x="178" 
 />
    <glyph glyph-name="uni200B" unicode="&#x200b;" horiz-adv-x="0" 
 />
    <glyph glyph-name="uniFEFF" unicode="&#xfeff;" horiz-adv-x="0" 
 />
    <glyph glyph-name="uni2010" unicode="&#x2010;" horiz-adv-x="838" 
d="M697 597v-136h-556v136h556z" />
    <glyph glyph-name="uni2011" unicode="&#x2011;" horiz-adv-x="838" 
d="M697 597v-136h-556v136h556z" />
    <glyph glyph-name="figuredash" unicode="&#x2012;" horiz-adv-x="1200" 
d="M1075 597v-136h-950v136h950z" />
    <glyph glyph-name="endash" unicode="&#x2013;" horiz-adv-x="1192" 
d="M1071 597v-136h-950v136h950z" />
    <glyph glyph-name="emdash" unicode="&#x2014;" horiz-adv-x="1622" 
d="M1561 597v-136h-1500v136h1500z" />
    <glyph glyph-name="quoteleft" unicode="&#x2018;" horiz-adv-x="494" 
d="M307 933h-174l105 507h129z" />
    <glyph glyph-name="quoteright" unicode="&#x2019;" horiz-adv-x="494" 
d="M187 1440h174l-105 -507h-129z" />
    <glyph glyph-name="quotesinglbase" unicode="&#x201a;" horiz-adv-x="494" 
d="M187 248h174l-105 -507h-129z" />
    <glyph glyph-name="quotedblleft" unicode="&#x201c;" horiz-adv-x="849" 
d="M307 933h-174l105 507h129zM662 933h-174l105 507h129z" />
    <glyph glyph-name="quotedblright" unicode="&#x201d;" horiz-adv-x="848" 
d="M541 1440h174l-105 -507h-129zM187 1440h174l-105 -507h-129z" />
    <glyph glyph-name="quotedblbase" unicode="&#x201e;" horiz-adv-x="848" 
d="M541 248h174l-105 -507h-129zM187 248h174l-105 -507h-129z" />
    <glyph glyph-name="dagger" unicode="&#x2020;" horiz-adv-x="741" 
d="M432 673h-123v439h-208v120h208v208h123v-208h208v-120h-208v-439z" />
    <glyph glyph-name="daggerdbl" unicode="&#x2021;" horiz-adv-x="741" 
d="M432 1440v-180h208v-120h-208v-166h208v-121h-208v-180h-123v180h-208v121h208v166h-208v120h208v180h123z" />
    <glyph glyph-name="bullet" unicode="&#x2022;" horiz-adv-x="864" 
d="M433 756c124 0 227 -101 227 -227c0 -125 -103 -227 -227 -227c-127 0 -227 102 -227 227c0 126 100 227 227 227z" />
    <glyph glyph-name="uni2023" unicode="&#x2023;" horiz-adv-x="1015" 
d="M861 529l-603 -349v698z" />
    <glyph glyph-name="ellipsis" unicode="&#x2026;" horiz-adv-x="1490" 
d="M263 233c66 0 124 -58 124 -125s-58 -126 -124 -126c-67 0 -126 59 -126 126s59 125 126 125zM746 233c67 0 125 -58 125 -125s-58 -126 -125 -126s-125 59 -125 126s58 125 125 125zM1229 233c67 0 125 -58 125 -125s-58 -126 -125 -126c-66 0 -125 59 -125 126
s59 125 125 125z" />
    <glyph glyph-name="perthousand" unicode="&#x2030;" horiz-adv-x="2777" 
d="M463 1419c211 0 370 -156 370 -362c0 -208 -159 -364 -370 -364c-208 0 -366 156 -366 364c0 206 158 362 366 362zM463 1287c-128 0 -226 -96 -226 -230c0 -136 98 -232 226 -232c132 0 229 96 229 232c0 134 -97 230 -229 230zM1488 1400l-883 -1400h-156l883 1400h156
zM1471 707c211 0 370 -160 370 -363c0 -208 -159 -363 -370 -363c-208 0 -366 155 -366 363c0 206 158 363 366 363zM1471 575c-128 0 -226 -96 -226 -231s98 -231 226 -231c132 0 230 96 230 231s-98 231 -230 231zM2310 707c211 0 370 -157 370 -363
c0 -208 -159 -363 -370 -363c-209 0 -366 155 -366 363c0 206 157 363 366 363zM2310 575c-129 0 -226 -96 -226 -231s97 -231 226 -231c132 0 229 96 229 231s-97 231 -229 231z" />
    <glyph glyph-name="minute" unicode="&#x2032;" horiz-adv-x="537" 
d="M262 1400h142l-134 -632h-143z" />
    <glyph glyph-name="second" unicode="&#x2033;" horiz-adv-x="850" 
d="M575 1400h142l-134 -632h-143zM262 1400h142l-134 -632h-143z" />
    <glyph glyph-name="uni2034" unicode="&#x2034;" horiz-adv-x="1116" 
d="M552 1400h142l-134 -632h-143zM841 1400h142l-134 -632h-143zM262 1400h142l-134 -632h-143z" />
    <glyph glyph-name="guilsinglleft" unicode="&#x2039;" horiz-adv-x="625" 
d="M287 529l191 -370h-160l-192 370l192 370h160z" />
    <glyph glyph-name="guilsinglright" unicode="&#x203a;" horiz-adv-x="625" 
d="M338 529l-191 370h160l192 -370l-192 -370h-160z" />
    <glyph glyph-name="fraction" unicode="&#x2044;" horiz-adv-x="436" 
d="M734 1400l-883 -1400h-149l883 1400h149z" />
    <glyph glyph-name="uni2070" unicode="&#x2070;" horiz-adv-x="871" 
d="M435 1410c186 0 336 -150 336 -402c0 -251 -150 -402 -336 -402c-185 0 -335 151 -335 402c0 252 150 402 335 402zM435 1292c-115 0 -207 -101 -207 -284s92 -284 207 -284c116 0 208 101 208 284s-92 284 -208 284z" />
    <glyph glyph-name="uni2071" unicode="&#x2071;" horiz-adv-x="374" 
d="M248 1279v-662h-123v662h123zM186 1584c47 0 83 -36 83 -82c0 -47 -36 -82 -83 -82c-46 0 -81 35 -81 82c0 46 35 82 81 82z" />
    <glyph glyph-name="uni2074" unicode="&#x2074;" horiz-adv-x="690" 
d="M529 1099v-217h121v-113h-121v-152h-124v152h-365v89l276 541h137l-267 -517h219v217h124z" />
    <glyph glyph-name="uni2075" unicode="&#x2075;" horiz-adv-x="712" 
d="M582 1399v-114h-336l-6 -189h94c190 0 289 -98 289 -232c0 -160 -122 -258 -284 -258c-115 0 -210 42 -274 113l73 82c48 -48 123 -81 200 -81c100 0 157 56 157 135c0 74 -52 130 -186 130h-182l12 414h443z" />
    <glyph glyph-name="uni2076" unicode="&#x2076;" horiz-adv-x="709" 
d="M499 1399l-194 -283c19 5 41 8 65 8c164 0 275 -112 275 -256c0 -151 -125 -262 -293 -262c-167 0 -292 110 -292 259c0 65 23 126 64 188l226 346h149zM352 1019c-94 0 -163 -64 -164 -152c0 -88 70 -152 164 -152c95 0 164 64 164 152s-69 152 -164 152z" />
    <glyph glyph-name="uni2077" unicode="&#x2077;" horiz-adv-x="663" 
d="M613 1399v-96l-340 -686h-146l340 667h-407v115h553z" />
    <glyph glyph-name="uni2078" unicode="&#x2078;" horiz-adv-x="776" 
d="M388 1410c156 0 283 -79 283 -216c0 -94 -59 -151 -134 -181c85 -29 154 -87 154 -187c0 -140 -137 -220 -303 -220c-167 0 -303 80 -303 220c0 100 68 157 153 186c-76 30 -134 87 -134 182c0 137 128 216 284 216zM388 963c-93 0 -170 -44 -170 -124
c0 -84 77 -127 170 -127c92 0 169 43 169 127c0 80 -77 124 -169 124zM388 1302c-84 0 -153 -41 -153 -120c0 -78 69 -119 153 -119c83 0 152 41 152 119c0 79 -69 120 -152 120z" />
    <glyph glyph-name="uni2079" unicode="&#x2079;" horiz-adv-x="709" 
d="M211 617l193 283c-19 -5 -40 -8 -64 -8c-165 0 -275 113 -275 256c0 151 124 262 292 262c167 0 293 -110 293 -259c0 -64 -24 -124 -65 -187l-226 -347h-148zM357 997c95 0 163 64 163 152s-69 152 -163 152s-164 -63 -164 -152c0 -88 70 -152 164 -152z" />
    <glyph glyph-name="uni207F" unicode="&#x207f;" horiz-adv-x="850" 
d="M465 1292c157 0 267 -103 267 -263v-412h-123v373c0 117 -64 186 -176 186c-102 0 -185 -71 -185 -188v-371h-123v662h120v-108c48 86 132 121 220 121z" />
    <glyph glyph-name="uni2080" unicode="&#x2080;" horiz-adv-x="871" 
d="M435 422c186 0 336 -150 336 -402c0 -251 -150 -402 -336 -402c-185 0 -335 151 -335 402c0 252 150 402 335 402zM435 304c-115 0 -207 -101 -207 -284s92 -284 207 -284c116 0 208 101 208 284s-92 284 -208 284z" />
    <glyph glyph-name="uni2081" unicode="&#x2081;" horiz-adv-x="550" 
d="M391 421v-792h-124v620l-217 -87v122z" />
    <glyph glyph-name="uni2082" unicode="&#x2082;" horiz-adv-x="681" 
d="M145 212l-80 77c43 59 121 133 262 133c163 0 260 -102 260 -244c0 -95 -46 -162 -115 -231l-201 -203h340v-115h-517v97l291 291c45 45 74 93 74 151c0 78 -54 136 -143 136c-82 0 -132 -44 -171 -92z" />
    <glyph glyph-name="uni2083" unicode="&#x2083;" horiz-adv-x="685" 
d="M308 422c162 0 274 -87 274 -216c0 -89 -50 -152 -128 -183c88 -30 145 -95 145 -182c0 -151 -139 -223 -285 -223c-114 0 -204 39 -264 106l72 82c47 -49 112 -77 186 -77c88 0 163 39 163 122c0 76 -78 118 -171 118h-100v110h100c87 0 154 40 154 117
c0 71 -63 115 -152 115c-78 0 -137 -38 -174 -83l-74 79c53 67 135 115 254 115z" />
    <glyph glyph-name="uni2084" unicode="&#x2084;" horiz-adv-x="690" 
d="M529 111v-217h121v-113h-121v-152h-124v152h-365v89l276 541h137l-267 -517h219v217h124z" />
    <glyph glyph-name="uni2085" unicode="&#x2085;" horiz-adv-x="712" 
d="M582 411v-114h-336l-6 -189h94c190 0 289 -98 289 -232c0 -160 -122 -258 -284 -258c-115 0 -210 42 -274 113l73 82c48 -48 123 -81 200 -81c100 0 157 56 157 135c0 74 -52 130 -186 130h-182l12 414h443z" />
    <glyph glyph-name="uni2086" unicode="&#x2086;" horiz-adv-x="709" 
d="M499 411l-194 -283c19 5 41 8 65 8c164 0 275 -112 275 -256c0 -151 -125 -262 -293 -262c-167 0 -292 110 -292 259c0 65 23 126 64 188l226 346h149zM352 31c-94 0 -163 -64 -164 -152c0 -88 70 -152 164 -152c95 0 164 64 164 152s-69 152 -164 152z" />
    <glyph glyph-name="uni2087" unicode="&#x2087;" horiz-adv-x="663" 
d="M613 411v-96l-340 -686h-146l340 667h-407v115h553z" />
    <glyph glyph-name="uni2088" unicode="&#x2088;" horiz-adv-x="776" 
d="M388 422c156 0 283 -79 283 -216c0 -94 -59 -151 -134 -181c85 -29 154 -87 154 -187c0 -140 -137 -220 -303 -220c-167 0 -303 80 -303 220c0 100 68 157 153 186c-76 30 -134 87 -134 182c0 137 128 216 284 216zM388 -25c-93 0 -170 -44 -170 -124
c0 -84 77 -127 170 -127c92 0 169 43 169 127c0 80 -77 124 -169 124zM388 314c-84 0 -153 -41 -153 -120c0 -78 69 -119 153 -119c83 0 152 41 152 119c0 79 -69 120 -152 120z" />
    <glyph glyph-name="uni2089" unicode="&#x2089;" horiz-adv-x="709" 
d="M211 -371l193 283c-19 -5 -40 -8 -64 -8c-165 0 -275 113 -275 256c0 151 124 262 292 262c167 0 293 -110 293 -259c0 -64 -24 -124 -65 -187l-226 -347h-148zM357 9c95 0 163 64 163 152s-69 152 -163 152s-164 -63 -164 -152c0 -88 70 -152 164 -152z" />
    <glyph glyph-name="Euro" unicode="&#x20ac;" horiz-adv-x="1400" 
d="M1044 602v-124h-630c59 -220 212 -353 432 -353c171 0 295 82 376 202l99 -103c-106 -150 -263 -242 -475 -242c-310 0 -525 191 -594 496h-175v124h156c-3 31 -4 64 -4 98c0 33 1 66 4 98h-156v124h175c69 304 284 496 594 496c211 0 373 -91 478 -237l-104 -108
c-80 120 -203 202 -374 202c-222 0 -374 -134 -432 -353h630v-124h-652c-3 -32 -5 -64 -5 -98s2 -67 5 -98h652z" />
    <glyph glyph-name="uni20BA" unicode="&#x20ba;" horiz-adv-x="1400" 
d="M1000 804v-132l-509 -237v-286h233c186 0 318 78 431 284l132 -73c-145 -260 -317 -360 -575 -360h-375v363l-195 -90v132l195 90v193l-195 -90v132l195 91v579h154v-507l509 237v-133l-509 -237v-193z" />
    <glyph glyph-name="uni2100" unicode="&#x2100;" horiz-adv-x="1909" 
d="M489 1419c178 0 294 -91 294 -279v-396h-121v89c-52 -58 -130 -103 -233 -103c-145 0 -234 85 -234 205s100 197 273 197h191c-2 121 -68 177 -184 177c-83 0 -149 -33 -197 -71l-49 95c69 53 156 86 260 86zM457 832c81 0 154 42 204 100v113h-175
c-116 0 -162 -49 -162 -107c0 -57 46 -106 133 -106zM1518 1400l-883 -1400h-149l883 1400h149zM1461 670c104 0 194 -41 254 -114l-87 -76c-46 48 -102 75 -170 75c-122 0 -216 -95 -216 -229c0 -135 93 -229 215 -229c69 0 129 30 173 76l85 -78
c-61 -72 -150 -114 -254 -114c-204 0 -345 148 -345 345c0 198 141 344 345 344z" />
    <glyph glyph-name="uni2101" unicode="&#x2101;" horiz-adv-x="1909" 
d="M493 1419c178 0 294 -91 294 -279v-396h-121v89c-52 -58 -130 -103 -233 -103c-145 0 -234 85 -234 205s100 197 273 197h191c-2 121 -68 177 -184 177c-83 0 -149 -33 -197 -71l-49 95c69 53 156 86 260 86zM461 832c81 0 154 42 204 100v113h-175
c-116 0 -162 -49 -162 -107c0 -57 46 -106 133 -106zM1522 1400l-883 -1400h-149l883 1400h149zM1687 600l-45 -96c-49 29 -135 61 -219 61c-88 0 -143 -36 -143 -94c0 -50 47 -74 133 -85l71 -9c139 -18 220 -79 220 -186c0 -131 -113 -210 -293 -210
c-96 0 -203 23 -282 80l51 94c55 -39 125 -70 233 -70c102 0 166 33 166 97c0 49 -43 77 -135 88l-70 8c-151 17 -222 85 -222 187c0 128 105 204 268 204c105 0 193 -27 267 -69z" />
    <glyph glyph-name="afii61248" unicode="&#x2105;" horiz-adv-x="1909" 
d="M502 1419c104 0 194 -41 254 -114l-87 -76c-46 48 -102 75 -170 75c-122 0 -216 -95 -216 -229c0 -135 93 -229 215 -229c69 0 129 30 173 76l85 -78c-61 -72 -150 -114 -254 -114c-204 0 -345 148 -345 345c0 198 141 344 345 344zM1462 1400l-883 -1400h-149l883 1400
h149zM1404 670c200 0 349 -147 349 -344s-149 -345 -349 -345s-349 148 -349 345s149 344 349 344zM1404 555c-127 0 -223 -96 -223 -229s96 -229 223 -229s224 96 224 229s-97 229 -224 229z" />
    <glyph glyph-name="uni2106" unicode="&#x2106;" horiz-adv-x="1909" 
d="M499 1419c104 0 194 -41 254 -114l-87 -76c-46 48 -102 75 -170 75c-122 0 -216 -95 -216 -229c0 -135 93 -229 215 -229c69 0 129 30 173 76l85 -78c-61 -72 -150 -114 -254 -114c-204 0 -345 148 -345 345c0 198 141 344 345 344zM1459 1400l-883 -1400h-149l883 1400
h149zM1756 657v-385c0 -196 -139 -291 -304 -291c-164 0 -303 95 -303 291v385h123v-374c0 -125 76 -186 180 -186c106 0 182 61 182 186v374h122z" />
    <glyph glyph-name="afii61289" unicode="&#x2113;" horiz-adv-x="1072" 
d="M197 378l-55 128c57 23 111 48 163 76l1 505c1 214 119 372 307 372c176 0 298 -127 298 -307c0 -264 -196 -484 -457 -644v-175c0 -148 75 -212 180 -212c74 0 146 30 201 72l60 -119c-69 -53 -160 -94 -274 -94c-199 0 -317 113 -317 351v95c-35 -17 -71 -33 -107 -48z
M455 1087l-1 -413c186 132 304 297 304 478c0 104 -54 167 -145 167c-92 0 -158 -87 -158 -232z" />
    <glyph glyph-name="afii61352" unicode="&#x2116;" horiz-adv-x="2433" 
d="M2338 579v-135h-664v135h664zM2006 1414c200 0 348 -147 348 -343c0 -195 -148 -342 -348 -342c-199 0 -347 147 -347 342c0 196 148 343 347 343zM2006 1300c-127 0 -223 -95 -223 -229c0 -133 96 -228 223 -228s224 95 224 228c0 134 -97 229 -224 229zM1375 1400
v-1400h-145l-867 1124v-1124h-161v1400h145l867 -1124v1124h161z" />
    <glyph glyph-name="uni2117" unicode="&#x2117;" horiz-adv-x="1903" 
d="M951 1508c445 0 806 -359 806 -800c0 -442 -361 -802 -806 -802c-446 0 -806 360 -806 802c0 441 360 800 806 800zM951 1376c-371 0 -670 -298 -670 -668c0 -371 299 -670 670 -670c370 0 670 299 670 670c0 370 -300 668 -670 668zM666 1124h347
c213 0 334 -100 334 -263c0 -161 -121 -261 -333 -261h-215v-321h-133v845zM1010 1003h-211v-284h211c127 0 200 49 200 142s-73 142 -200 142z" />
    <glyph glyph-name="uni2120" unicode="&#x2120;" horiz-adv-x="1485" 
d="M608 1351l-48 -89c-48 25 -110 50 -187 50c-79 0 -138 -28 -138 -78c0 -47 54 -66 141 -75l47 -5c121 -12 203 -63 203 -158c0 -134 -125 -192 -265 -192c-98 0 -196 26 -260 68l53 88c47 -29 122 -58 208 -58c82 0 148 25 148 79c0 48 -50 65 -143 75l-52 5
c-124 12 -198 67 -198 163c0 114 108 185 253 185c103 0 174 -24 238 -58zM1404 815h-107v442l-165 -381h-113l-165 380v-441h-108v585h153l177 -402l176 402h152v-585z" />
    <glyph glyph-name="trademark" unicode="&#x2122;" horiz-adv-x="1434" 
d="M1353 815h-108v443l-165 -382h-112l-165 381v-442h-108v586h153l176 -403l176 403h153v-586zM384 815h-107v486h-196v99h499v-99h-196v-486z" />
    <glyph glyph-name="Omega" unicode="&#x2126;" horiz-adv-x="1720" 
d="M81 152h342c-174 114 -286 307 -286 543c0 422 306 725 723 725c416 0 723 -303 723 -725c0 -236 -112 -429 -287 -543h343v-152h-602v131c223 71 378 278 378 557c0 345 -240 577 -555 577s-555 -232 -555 -577c0 -279 155 -486 378 -557v-131h-602v152z" />
    <glyph glyph-name="estimated" unicode="&#x212e;" horiz-adv-x="2000" 
d="M451 671v-345c0 -98 24 -172 104 -230c124 -91 278 -141 445 -141c258 0 485 118 616 318l47 -36c-143 -214 -387 -341 -663 -341c-439 0 -798 322 -798 804s359 804 798 804s798 -322 798 -804c0 -10 0 -20 -1 -29h-1346zM451 729h1107v335c0 98 -23 171 -100 231
c-126 97 -285 150 -458 150c-167 0 -321 -50 -445 -141c-80 -58 -104 -132 -104 -230v-345z" />
    <glyph glyph-name="uni214D" unicode="&#x214d;" horiz-adv-x="1909" 
d="M560 1400l283 -729h-132l-64 173h-325l-63 -173h-129l282 729h148zM1757 664l-53 -102c-53 32 -126 63 -220 63c-92 0 -161 -36 -161 -101c0 -59 66 -86 170 -98l54 -6c144 -16 233 -80 233 -196c0 -164 -146 -234 -306 -234c-118 0 -229 34 -301 85l59 101
c55 -35 138 -73 244 -73c96 0 170 32 170 104c0 62 -57 84 -167 97l-58 7c-153 18 -230 84 -230 202c0 138 121 225 288 225c124 0 205 -31 278 -74zM485 1285l-121 -328h242zM1545 1400l-883 -1400h-149l883 1400h149z" />
    <glyph glyph-name="uni2150" unicode="&#x2150;" horiz-adv-x="1700" 
d="M1308 1400l-883 -1400h-149l883 1400h149zM1650 782v-96l-340 -686h-146l340 667h-407v115h553zM391 1409v-792h-124v620l-217 -87v122z" />
    <glyph glyph-name="uni2151" unicode="&#x2151;" horiz-adv-x="1719" 
d="M1308 1400l-883 -1400h-149l883 1400h149zM1221 0l193 283c-19 -5 -40 -8 -64 -8c-165 0 -275 113 -275 256c0 151 124 262 292 262c167 0 293 -110 293 -259c0 -64 -24 -124 -65 -187l-226 -347h-148zM1367 380c95 0 163 64 163 152s-69 152 -163 152
s-164 -63 -164 -152c0 -88 70 -152 164 -152zM391 1409v-792h-124v620l-217 -87v122z" />
    <glyph glyph-name="uni2152" unicode="&#x2152;" horiz-adv-x="2451" 
d="M1308 1400l-883 -1400h-149l883 1400h149zM1421 792v-792h-124v620l-217 -87v122zM2015 793c186 0 336 -150 336 -402c0 -251 -150 -402 -336 -402c-185 0 -335 151 -335 402c0 252 150 402 335 402zM2015 675c-115 0 -207 -101 -207 -284s92 -284 207 -284
c116 0 208 101 208 284s-92 284 -208 284zM391 1409v-792h-124v620l-217 -87v122z" />
    <glyph glyph-name="onethird" unicode="&#x2153;" horiz-adv-x="1694" 
d="M1308 1400l-883 -1400h-149l883 1400h149zM1318 793c162 0 274 -87 274 -216c0 -89 -50 -152 -128 -183c88 -30 145 -95 145 -182c0 -151 -139 -223 -285 -223c-114 0 -204 39 -264 106l72 82c47 -49 112 -77 186 -77c88 0 163 39 163 122c0 76 -78 118 -171 118h-100
v110h100c87 0 154 40 154 117c0 71 -63 115 -152 115c-78 0 -137 -38 -174 -83l-74 79c53 67 135 115 254 115zM391 1409v-792h-124v620l-217 -87v122z" />
    <glyph glyph-name="twothirds" unicode="&#x2154;" horiz-adv-x="1831" 
d="M1445 1400l-883 -1400h-149l883 1400h149zM1454 793c162 0 274 -87 274 -216c0 -89 -50 -152 -128 -183c88 -30 145 -95 145 -182c0 -151 -139 -223 -285 -223c-114 0 -204 39 -264 106l72 82c47 -49 112 -77 186 -77c88 0 163 39 163 122c0 76 -78 118 -171 118h-100
v110h100c87 0 154 40 154 117c0 71 -63 115 -152 115c-78 0 -137 -38 -174 -83l-74 79c53 67 135 115 254 115zM145 1200l-80 77c43 59 121 133 262 133c163 0 260 -102 260 -244c0 -95 -46 -162 -115 -231l-201 -203h340v-115h-517v97l291 291c45 45 74 93 74 151
c0 78 -54 136 -143 136c-82 0 -132 -44 -171 -92z" />
    <glyph glyph-name="uni2155" unicode="&#x2155;" horiz-adv-x="1722" 
d="M1308 1400l-883 -1400h-149l883 1400h149zM1592 782v-114h-336l-6 -189h94c190 0 289 -98 289 -232c0 -160 -122 -258 -284 -258c-115 0 -210 42 -274 113l73 82c48 -48 123 -81 200 -81c100 0 157 56 157 135c0 74 -52 130 -186 130h-182l12 414h443zM391 1409v-792
h-124v620l-217 -87v122z" />
    <glyph glyph-name="uni2156" unicode="&#x2156;" horiz-adv-x="1859" 
d="M1445 1400l-883 -1400h-149l883 1400h149zM1728 782v-114h-336l-6 -189h94c190 0 289 -98 289 -232c0 -160 -122 -258 -284 -258c-115 0 -210 42 -274 113l73 82c48 -48 123 -81 200 -81c100 0 157 56 157 135c0 74 -52 130 -186 130h-182l12 414h443zM145 1200l-80 77
c43 59 121 133 262 133c163 0 260 -102 260 -244c0 -95 -46 -162 -115 -231l-201 -203h340v-115h-517v97l291 291c45 45 74 93 74 151c0 78 -54 136 -143 136c-82 0 -132 -44 -171 -92z" />
    <glyph glyph-name="uni2157" unicode="&#x2157;" horiz-adv-x="1833" 
d="M1419 1400l-883 -1400h-149l883 1400h149zM1702 782v-114h-336l-6 -189h94c190 0 289 -98 289 -232c0 -160 -122 -258 -284 -258c-115 0 -210 42 -274 113l73 82c48 -48 123 -81 200 -81c100 0 157 56 157 135c0 74 -52 130 -186 130h-182l12 414h443zM308 1410
c162 0 274 -87 274 -216c0 -89 -50 -152 -128 -183c88 -30 145 -95 145 -182c0 -151 -139 -223 -285 -223c-114 0 -204 39 -264 106l72 82c47 -49 112 -77 186 -77c88 0 163 39 163 122c0 76 -78 118 -171 118h-100v110h100c87 0 154 40 154 117c0 71 -63 115 -152 115
c-78 0 -137 -38 -174 -83l-74 79c53 67 135 115 254 115z" />
    <glyph glyph-name="uni2158" unicode="&#x2158;" horiz-adv-x="1838" 
d="M1424 1400l-883 -1400h-149l883 1400h149zM1708 782v-114h-336l-6 -189h94c190 0 289 -98 289 -232c0 -160 -122 -258 -284 -258c-115 0 -210 42 -274 113l73 82c48 -48 123 -81 200 -81c100 0 157 56 157 135c0 74 -52 130 -186 130h-182l12 414h443zM529 1099v-217h121
v-113h-121v-152h-124v152h-365v89l276 541h137l-267 -517h219v217h124z" />
    <glyph glyph-name="uni2159" unicode="&#x2159;" horiz-adv-x="1635" 
d="M1308 1400l-883 -1400h-149l883 1400h149zM1425 782l-194 -283c19 5 41 8 65 8c164 0 275 -112 275 -256c0 -151 -125 -262 -293 -262c-167 0 -292 110 -292 259c0 65 23 126 64 188l226 346h149zM1278 402c-94 0 -163 -64 -164 -152c0 -88 70 -152 164 -152
c95 0 164 64 164 152s-69 152 -164 152zM391 1409v-792h-124v620l-217 -87v122z" />
    <glyph glyph-name="uni215A" unicode="&#x215a;" horiz-adv-x="1766" 
d="M1439 1400l-883 -1400h-149l883 1400h149zM1556 782l-194 -283c19 5 41 8 65 8c164 0 275 -112 275 -256c0 -151 -125 -262 -293 -262c-167 0 -292 110 -292 259c0 65 23 126 64 188l226 346h149zM1409 402c-94 0 -163 -64 -164 -152c0 -88 70 -152 164 -152
c95 0 164 64 164 152s-69 152 -164 152zM582 1399v-114h-336l-6 -189h94c190 0 289 -98 289 -232c0 -160 -122 -258 -284 -258c-115 0 -210 42 -274 113l73 82c48 -48 123 -81 200 -81c100 0 157 56 157 135c0 74 -52 130 -186 130h-182l12 414h443z" />
    <glyph glyph-name="oneeighth" unicode="&#x215b;" horiz-adv-x="1759" 
d="M1308 1400l-883 -1400h-149l883 1400h149zM1371 793c156 0 283 -79 283 -216c0 -94 -59 -151 -134 -181c85 -29 154 -87 154 -187c0 -140 -137 -220 -303 -220c-167 0 -303 80 -303 220c0 100 68 157 153 186c-76 30 -134 87 -134 182c0 137 128 216 284 216zM1371 346
c-93 0 -170 -44 -170 -124c0 -84 77 -127 170 -127c92 0 169 43 169 127c0 80 -77 124 -169 124zM1371 685c-84 0 -153 -41 -153 -120c0 -78 69 -119 153 -119c83 0 152 41 152 119c0 79 -69 120 -152 120zM391 1409v-792h-124v620l-217 -87v122z" />
    <glyph glyph-name="threeeighths" unicode="&#x215c;" horiz-adv-x="1869" 
d="M1419 1400l-883 -1400h-149l883 1400h149zM1481 793c156 0 283 -79 283 -216c0 -94 -59 -151 -134 -181c85 -29 154 -87 154 -187c0 -140 -137 -220 -303 -220c-167 0 -303 80 -303 220c0 100 68 157 153 186c-76 30 -134 87 -134 182c0 137 128 216 284 216zM1481 346
c-93 0 -170 -44 -170 -124c0 -84 77 -127 170 -127c92 0 169 43 169 127c0 80 -77 124 -169 124zM1481 685c-84 0 -153 -41 -153 -120c0 -78 69 -119 153 -119c83 0 152 41 152 119c0 79 -69 120 -152 120zM308 1410c162 0 274 -87 274 -216c0 -89 -50 -152 -128 -183
c88 -30 145 -95 145 -182c0 -151 -139 -223 -285 -223c-114 0 -204 39 -264 106l72 82c47 -49 112 -77 186 -77c88 0 163 39 163 122c0 76 -78 118 -171 118h-100v110h100c87 0 154 40 154 117c0 71 -63 115 -152 115c-78 0 -137 -38 -174 -83l-74 79c53 67 135 115 254 115
z" />
    <glyph glyph-name="fiveeighths" unicode="&#x215d;" horiz-adv-x="1890" 
d="M1439 1400l-883 -1400h-149l883 1400h149zM1502 793c156 0 283 -79 283 -216c0 -94 -59 -151 -134 -181c85 -29 154 -87 154 -187c0 -140 -137 -220 -303 -220c-167 0 -303 80 -303 220c0 100 68 157 153 186c-76 30 -134 87 -134 182c0 137 128 216 284 216zM1502 346
c-93 0 -170 -44 -170 -124c0 -84 77 -127 170 -127c92 0 169 43 169 127c0 80 -77 124 -169 124zM1502 685c-84 0 -153 -41 -153 -120c0 -78 69 -119 153 -119c83 0 152 41 152 119c0 79 -69 120 -152 120zM582 1399v-114h-336l-6 -189h94c190 0 289 -98 289 -232
c0 -160 -122 -258 -284 -258c-115 0 -210 42 -274 113l73 82c48 -48 123 -81 200 -81c100 0 157 56 157 135c0 74 -52 130 -186 130h-182l12 414h443z" />
    <glyph glyph-name="seveneighths" unicode="&#x215e;" horiz-adv-x="1735" 
d="M1284 1400l-883 -1400h-149l883 1400h149zM1347 793c156 0 283 -79 283 -216c0 -94 -59 -151 -134 -181c85 -29 154 -87 154 -187c0 -140 -137 -220 -303 -220c-167 0 -303 80 -303 220c0 100 68 157 153 186c-76 30 -134 87 -134 182c0 137 128 216 284 216zM1347 346
c-93 0 -170 -44 -170 -124c0 -84 77 -127 170 -127c92 0 169 43 169 127c0 80 -77 124 -169 124zM1347 685c-84 0 -153 -41 -153 -120c0 -78 69 -119 153 -119c83 0 152 41 152 119c0 79 -69 120 -152 120zM613 1399v-96l-340 -686h-146l340 667h-407v115h553z" />
    <glyph glyph-name="uni215F" unicode="&#x215f;" horiz-adv-x="1010" 
d="M1308 1400l-883 -1400h-149l883 1400h149zM391 1409v-792h-124v620l-217 -87v122z" />
    <glyph glyph-name="uni2189" unicode="&#x2189;" horiz-adv-x="1937" 
d="M1551 1400l-883 -1400h-149l883 1400h149zM1560 793c162 0 274 -87 274 -216c0 -89 -50 -152 -128 -183c88 -30 145 -95 145 -182c0 -151 -139 -223 -285 -223c-114 0 -204 39 -264 106l72 82c47 -49 112 -77 186 -77c88 0 163 39 163 122c0 76 -78 118 -171 118h-100
v110h100c87 0 154 40 154 117c0 71 -63 115 -152 115c-78 0 -137 -38 -174 -83l-74 79c53 67 135 115 254 115zM435 1410c186 0 336 -150 336 -402c0 -251 -150 -402 -336 -402c-185 0 -335 151 -335 402c0 252 150 402 335 402zM435 1292c-115 0 -207 -101 -207 -284
s92 -284 207 -284c116 0 208 101 208 284s-92 284 -208 284z" />
    <glyph glyph-name="arrowleft" unicode="&#x2190;" horiz-adv-x="2000" 
d="M1782 585h-1128c-59 0 -105 0 -196 6c68 -55 137 -123 191 -177l287 -287l-96 -96l-621 622l621 622l96 -96l-287 -287c-54 -54 -123 -122 -191 -177c91 6 137 6 196 6h1128v-136z" />
    <glyph glyph-name="arrowup" unicode="&#x2191;" horiz-adv-x="2000" 
d="M933 -77v1127c0 59 0 105 5 197c-55 -69 -123 -137 -177 -191l-287 -288l-96 96l622 622l622 -622l-96 -96l-286 288c-54 55 -123 122 -178 191c6 -92 6 -138 6 -197v-1127h-135z" />
    <glyph glyph-name="arrowright" unicode="&#x2192;" horiz-adv-x="2000" 
d="M219 721h1127c59 0 105 0 196 -6c-67 55 -136 123 -191 177l-287 287l96 96l622 -622l-622 -622l-96 96l287 287c55 54 124 122 191 177c-91 -6 -137 -6 -196 -6h-1127v136z" />
    <glyph glyph-name="arrowdown" unicode="&#x2193;" horiz-adv-x="2000" 
d="M1068 1484v-1127c0 -59 0 -105 -6 -197c55 69 123 137 177 191l287 288l96 -96l-622 -622l-622 622l96 96l287 -288c54 -54 122 -122 177 -191c-6 92 -6 138 -6 197v1127h136z" />
    <glyph glyph-name="uni2196" unicode="&#x2196;" horiz-adv-x="2000" 
d="M1480 62l-797 797c-42 42 -74 75 -135 143c9 -87 10 -184 10 -260v-406h-135v879l879 1v-136h-406c-77 0 -173 1 -260 10c69 -61 101 -93 142 -134l798 -798z" />
    <glyph glyph-name="uni2197" unicode="&#x2197;" horiz-adv-x="2000" 
d="M400 149l797 797c42 42 74 74 142 135c-86 -9 -183 -10 -260 -10h-406v135h880v-879h-136v406c0 76 1 172 11 260c-62 -69 -94 -102 -135 -143l-798 -797z" />
    <glyph glyph-name="uni2198" unicode="&#x2198;" horiz-adv-x="2000" 
d="M496 1254l797 -798c41 -42 74 -74 135 -142c-9 87 -10 183 -10 260v406h135v-880h-879v136h406c77 0 173 -1 260 -11c-69 62 -101 94 -142 135l-798 798z" />
    <glyph glyph-name="uni2199" unicode="&#x2199;" horiz-adv-x="2000" 
d="M1577 1147l-797 -797c-42 -42 -74 -74 -142 -135c86 9 183 10 260 10h406v-135h-880v879h136v-405c0 -77 -1 -173 -11 -261c62 69 94 102 135 143l798 798z" />
    <glyph glyph-name="partialdiff" unicode="&#x2202;" horiz-adv-x="1192" 
d="M279 1331l67 119c604 -245 738 -731 738 -967c0 -286 -214 -502 -499 -502s-498 208 -498 482c0 278 204 486 472 486c127 0 240 -57 316 -152c-84 205 -263 390 -596 534zM585 808c-196 0 -345 -142 -345 -344c0 -200 149 -343 345 -343c197 0 346 143 346 343
c0 202 -149 344 -346 344z" />
    <glyph glyph-name="Delta" unicode="&#x2206;" horiz-adv-x="1412" 
d="M805 1402l526 -1278v-124h-1250v124l526 1278h198zM706 1239l-444 -1087h888z" />
    <glyph glyph-name="product" unicode="&#x220f;" horiz-adv-x="1467" 
d="M1265 1400v-1665h-161v1513h-741v-1513h-161v1665h1063z" />
    <glyph glyph-name="summation" unicode="&#x2211;" horiz-adv-x="1314" 
d="M1190 1400v-152h-830l554 -625v-89l-558 -647h837v-152h-1072v125l622 715l-618 700v125h1065z" />
    <glyph glyph-name="minus" unicode="&#x2212;" horiz-adv-x="1200" 
d="M1035 597v-136h-870v136h870z" />
    <glyph glyph-name="uni2219" unicode="&#x2219;" horiz-adv-x="1200" 
d="M600 756c124 0 227 -101 227 -227c0 -125 -103 -227 -227 -227c-127 0 -227 102 -227 227c0 126 100 227 227 227z" />
    <glyph glyph-name="radical" unicode="&#x221a;" horiz-adv-x="1238" 
d="M1202 1440l-573 -1705h-199l-400 1000h177l322 -811l509 1516h164z" />
    <glyph glyph-name="infinity" unicode="&#x221e;" horiz-adv-x="1642" 
d="M52 520c0 232 167 378 361 378c158 0 260 -115 407 -277c147 162 251 277 407 277c194 0 362 -146 362 -378s-168 -378 -362 -378c-156 0 -260 115 -407 277c-147 -162 -249 -277 -407 -277c-194 0 -361 146 -361 378zM194 520c0 -154 98 -242 219 -242
c98 0 168 79 316 242c-145 162 -219 242 -316 242c-121 0 -219 -88 -219 -242zM1446 520c0 154 -98 242 -219 242c-97 0 -167 -79 -315 -242c148 -163 218 -242 315 -242c121 0 219 88 219 242z" />
    <glyph glyph-name="integral" unicode="&#x222b;" horiz-adv-x="667" 
d="M651 1407l-40 -136c-21 5 -42 8 -64 8c-116 0 -166 -73 -166 -201v-1021c0 -196 -89 -341 -306 -341c-41 0 -79 4 -114 12l41 136c20 -5 41 -8 63 -8c116 0 166 73 166 201v1021c0 196 89 341 306 341c41 0 79 -4 114 -12z" />
    <glyph glyph-name="congruent" unicode="&#x2245;" horiz-adv-x="1200" 
d="M1035 412v-136h-870v136h870zM1035 782v-136h-870v136h870zM966 1192l82 -94c-73 -79 -150 -118 -264 -118c-186 0 -228 86 -379 86c-65 0 -114 -28 -172 -83l-81 94c72 79 149 118 263 118c187 0 228 -86 379 -86c65 0 114 28 172 83z" />
    <glyph glyph-name="approxequal" unicode="&#x2248;" horiz-adv-x="1200" 
d="M966 817l82 -94c-73 -79 -150 -118 -264 -118c-186 0 -228 86 -379 86c-65 0 -114 -28 -172 -83l-81 94c72 79 149 118 263 118c187 0 228 -86 379 -86c65 0 114 28 172 83zM966 450l82 -94c-73 -79 -150 -118 -264 -118c-186 0 -228 86 -379 86c-65 0 -114 -28 -172 -83
l-81 94c72 79 149 118 263 118c187 0 228 -86 379 -86c65 0 114 28 172 83z" />
    <glyph glyph-name="uni2259" unicode="&#x2259;" horiz-adv-x="1200" 
d="M1035 412v-136h-870v136h870zM1035 782v-136h-870v136h870zM934 964h-160l-174 189l-175 -189h-160l235 288h200z" />
    <glyph glyph-name="notequal" unicode="&#x2260;" horiz-adv-x="1200" 
d="M1035 412v-136h-487l-123 -252h-143l123 252h-240v136h306l114 234h-420v136h487l123 252h143l-123 -252h240v-136h-307l-114 -234h421z" />
    <glyph glyph-name="lessequal" unicode="&#x2264;" horiz-adv-x="1200" 
d="M994 1088v-158l-626 -253l626 -253v-158l-787 337v147zM207 45v136h787v-136h-787z" />
    <glyph glyph-name="greaterequal" unicode="&#x2265;" horiz-adv-x="1200" 
d="M207 930v158l787 -338v-147l-787 -337v158l626 253zM994 181v-136h-787v136h787z" />
    <glyph glyph-name="dotmath" unicode="&#x22c5;" horiz-adv-x="1200" 
d="M601 654c66 0 124 -57 124 -124c0 -68 -58 -126 -124 -126c-67 0 -126 58 -126 126c0 67 59 124 126 124z" />
    <glyph glyph-name="uni2300" unicode="&#x2205;" horiz-adv-x="1429" 
d="M1131 1033l96 -96l-128 -128c60 -81 97 -181 97 -289c0 -265 -216 -482 -481 -482c-109 0 -209 36 -290 97l-127 -128l-96 96l127 127c-61 81 -97 181 -97 290c0 264 216 483 483 483c108 0 208 -37 289 -98zM367 520c0 -74 23 -143 63 -199l482 483
c-56 40 -124 63 -197 63c-192 0 -348 -156 -348 -347zM715 174c190 0 346 155 346 346c0 73 -23 141 -62 197l-481 -482c56 -39 124 -61 197 -61z" />
    <glyph glyph-name="uni2300" unicode="&#x2300;" horiz-adv-x="1429" 
d="M1131 1033l96 -96l-128 -128c60 -81 97 -181 97 -289c0 -265 -216 -482 -481 -482c-109 0 -209 36 -290 97l-127 -128l-96 96l127 127c-61 81 -97 181 -97 290c0 264 216 483 483 483c108 0 208 -37 289 -98zM367 520c0 -74 23 -143 63 -199l482 483
c-56 40 -124 63 -197 63c-192 0 -348 -156 -348 -347zM715 174c190 0 346 155 346 346c0 73 -23 141 -62 197l-481 -482c56 -39 124 -61 197 -61z" />
    <glyph glyph-name="uni2460" unicode="&#x2460;" horiz-adv-x="2050" 
d="M1025 1582c490 0 886 -395 886 -881c0 -487 -396 -883 -886 -883s-886 396 -886 883c0 486 396 881 886 881zM1025 1443c-410 0 -742 -331 -742 -742s332 -744 742 -744s743 333 743 744s-333 742 -743 742zM1140 1145v-855h-133v671l-258 -103v132z" />
    <glyph glyph-name="uni2461" unicode="&#x2461;" horiz-adv-x="2050" 
d="M1025 1582c490 0 886 -395 886 -881c0 -487 -396 -883 -886 -883s-886 396 -886 883c0 486 396 881 886 881zM1025 1443c-410 0 -742 -331 -742 -742s332 -744 742 -744s743 333 743 744s-333 742 -743 742zM823 920l-88 82c47 64 133 144 286 144
c178 0 286 -110 286 -265c0 -105 -59 -181 -129 -249l-221 -218h375v-124h-567v104l321 314c49 49 82 101 82 164c0 84 -59 147 -158 147c-91 0 -145 -47 -187 -99z" />
    <glyph glyph-name="uni2462" unicode="&#x2462;" horiz-adv-x="2050" 
d="M1025 1582c490 0 886 -395 886 -881c0 -487 -396 -883 -886 -883s-886 396 -886 883c0 486 396 881 886 881zM1025 1443c-410 0 -742 -331 -742 -742s332 -744 742 -744s743 333 743 744s-333 742 -743 742zM1012 1146c181 0 306 -94 306 -233c0 -98 -57 -166 -147 -197
c100 -31 165 -101 165 -197c0 -163 -154 -241 -318 -241c-122 0 -224 42 -289 113l77 87c52 -52 127 -83 206 -83c100 0 187 43 187 132c0 84 -86 132 -193 132h-112v115h113c98 0 174 44 174 128c0 76 -73 125 -176 125c-85 0 -151 -42 -191 -89l-81 85
c58 71 151 123 279 123z" />
    <glyph glyph-name="uni2463" unicode="&#x2463;" horiz-adv-x="2050" 
d="M1025 1582c490 0 886 -395 886 -881c0 -487 -396 -883 -886 -883s-886 396 -886 883c0 486 396 881 886 881zM1025 1443c-410 0 -742 -331 -742 -742s332 -744 742 -744s743 333 743 744s-333 742 -743 742zM1209 810v-232h134v-123h-134v-165h-133v165h-402v94l303 585
h147l-291 -556h243v232h133z" />
    <glyph glyph-name="uni2464" unicode="&#x2464;" horiz-adv-x="2050" 
d="M1025 1582c490 0 886 -395 886 -881c0 -487 -396 -883 -886 -883s-886 396 -886 883c0 486 396 881 886 881zM1025 1443c-410 0 -742 -331 -742 -742s332 -744 742 -744s743 333 743 744s-333 742 -743 742zM1295 1135v-123h-369l-8 -207h109c206 0 313 -101 313 -252
c0 -170 -133 -275 -311 -275c-126 0 -230 46 -301 122l72 95c51 -54 138 -95 228 -95c111 0 173 59 173 144c0 86 -58 144 -210 144h-193l11 447h486z" />
    <glyph glyph-name="uni2465" unicode="&#x2465;" horiz-adv-x="2050" 
d="M1025 1582c490 0 886 -395 886 -881c0 -487 -396 -883 -886 -883s-886 396 -886 883c0 486 396 881 886 881zM1025 1443c-410 0 -742 -331 -742 -742s332 -744 742 -744s743 333 743 744s-333 742 -743 742zM1175 1135l-212 -308c23 6 47 10 73 10
c176 0 299 -121 299 -275c0 -164 -136 -284 -317 -284c-182 0 -319 119 -319 280c0 69 26 134 70 201l246 376h160zM1018 724c-103 0 -180 -70 -180 -164c0 -95 77 -163 180 -163c102 0 179 69 179 163s-77 164 -179 164z" />
    <glyph glyph-name="uni2466" unicode="&#x2466;" horiz-adv-x="2050" 
d="M1025 1582c490 0 886 -395 886 -881c0 -487 -396 -883 -886 -883s-886 396 -886 883c0 486 396 881 886 881zM1025 1443c-410 0 -742 -331 -742 -742s332 -744 742 -744s743 333 743 744s-333 742 -743 742zM1357 1135v-105l-374 -740h-158l375 721h-449v124h606z" />
    <glyph glyph-name="uni2467" unicode="&#x2467;" horiz-adv-x="2050" 
d="M1025 1582c490 0 886 -395 886 -881c0 -487 -396 -883 -886 -883s-886 396 -886 883c0 486 396 881 886 881zM1025 1443c-410 0 -742 -331 -742 -742s332 -744 742 -744s743 333 743 744s-333 742 -743 742zM1025 1146c169 0 308 -85 308 -233c0 -101 -66 -163 -150 -196
c95 -32 172 -95 172 -201c0 -151 -149 -238 -330 -238c-180 0 -329 87 -329 238c0 106 76 169 171 201c-85 33 -150 95 -150 196c0 148 139 233 308 233zM1025 665c-100 0 -185 -47 -185 -135c0 -89 85 -135 185 -135s186 46 186 135c0 88 -86 135 -186 135zM1025 1029
c-92 0 -167 -44 -167 -128c0 -85 75 -130 167 -130c93 0 168 45 168 130c0 84 -75 128 -168 128z" />
    <glyph glyph-name="uni2468" unicode="&#x2468;" horiz-adv-x="2050" 
d="M1025 1582c490 0 886 -395 886 -881c0 -487 -396 -883 -886 -883s-886 396 -886 883c0 486 396 881 886 881zM1025 1443c-410 0 -742 -331 -742 -742s332 -744 742 -744s743 333 743 744s-333 742 -743 742zM879 290l212 307c-23 -7 -47 -10 -72 -10
c-177 0 -300 121 -300 276c0 164 136 283 318 283s318 -119 318 -279c0 -70 -25 -135 -69 -202l-246 -375h-161zM1037 701c103 0 180 69 180 164c0 94 -77 163 -180 163s-179 -69 -179 -163c0 -95 76 -164 179 -164z" />
    <glyph glyph-name="uni24EA" unicode="&#x24ea;" horiz-adv-x="2050" 
d="M1025 1582c490 0 886 -395 886 -881c0 -487 -396 -883 -886 -883s-886 396 -886 883c0 486 396 881 886 881zM1025 1443c-410 0 -742 -331 -742 -742s332 -744 742 -744s743 333 743 744s-333 742 -743 742zM1025 1146c207 0 373 -163 373 -433
c0 -272 -166 -435 -373 -435c-206 0 -372 163 -372 435c0 270 166 433 372 433zM1025 1019c-129 0 -234 -110 -234 -307c0 -198 105 -307 234 -307c130 0 235 109 235 307c0 197 -105 307 -235 307z" />
    <glyph glyph-name="uni24FF" unicode="&#x24ff;" horiz-adv-x="2050" 
d="M1025 1146c-206 0 -372 -163 -372 -433c0 -272 166 -435 372 -435c207 0 373 163 373 435c0 270 -166 433 -373 433zM1025 1019c130 0 235 -110 235 -307c0 -198 -105 -307 -235 -307c-129 0 -234 109 -234 307c0 197 105 307 234 307zM1025 1568
c483 0 873 -389 873 -867c0 -479 -390 -869 -873 -869s-872 390 -872 869c0 478 389 867 872 867z" />
    <glyph glyph-name="filledbox" unicode="&#x25a0;" horiz-adv-x="1800" 
d="M200 1400h1400v-1400h-1400v1400z" />
    <glyph glyph-name="H22073" unicode="&#x25a1;" horiz-adv-x="1800" 
d="M200 1400h1400v-1400h-1400v1400zM338 1262v-1124h1124v1124h-1124z" />
    <glyph glyph-name="uni25AE" unicode="&#x258c;" horiz-adv-x="1800" 
d="M200 1400h700v-1400h-700v1400z" />
    <glyph glyph-name="uni25AE" unicode="&#x25ae;" horiz-adv-x="1800" 
d="M200 1400h700v-1400h-700v1400z" />
    <glyph glyph-name="triagup" unicode="&#x25b2;" horiz-adv-x="1800" 
d="M900 1420l820 -1420h-1640z" />
    <glyph glyph-name="uni25B3" unicode="&#x25b3;" horiz-adv-x="1800" 
d="M900 1420l820 -1420h-1640zM900 1143l-581 -1005h1162z" />
    <glyph glyph-name="uni25B4" unicode="&#x25b4;" horiz-adv-x="1200" 
d="M601 955l348 -602h-697z" />
    <glyph glyph-name="uni25B8" unicode="&#x25b8;" horiz-adv-x="1200" 
d="M963 653l-603 -349v698z" />
    <glyph glyph-name="triagdn" unicode="&#x25bc;" horiz-adv-x="1800" 
d="M900 -20l-820 1420h1640z" />
    <glyph glyph-name="uni25BD" unicode="&#x25bd;" horiz-adv-x="1800" 
d="M900 -20l-820 1420h1640zM900 257l581 1005h-1162z" />
    <glyph glyph-name="uni25BE" unicode="&#x25be;" horiz-adv-x="1200" 
d="M599 352l-348 602h697z" />
    <glyph glyph-name="uni25C2" unicode="&#x25c2;" horiz-adv-x="1200" 
d="M237 653l603 349v-698z" />
    <glyph glyph-name="uni25C6" unicode="&#x25c6;" horiz-adv-x="1800" 
d="M900 1438l738 -738l-738 -738l-738 738z" />
    <glyph glyph-name="uni25C7" unicode="&#x25c7;" horiz-adv-x="1800" 
d="M900 1438l738 -738l-738 -738l-738 738zM900 1243l-543 -543l543 -543l543 543z" />
    <glyph glyph-name="lozenge" unicode="&#x25ca;" horiz-adv-x="1549" 
d="M1448 700l-587 -700h-173l-587 700l587 700h173zM1253 700l-482 563l-474 -562l481 -564z" />
    <glyph glyph-name="circle" unicode="&#x25cb;" horiz-adv-x="1800" 
d="M900 -39c-409 0 -739 331 -739 739s330 739 739 739c408 0 739 -331 739 -739s-331 -739 -739 -739zM900 99c332 0 601 269 601 601s-269 601 -601 601c-333 0 -601 -269 -601 -601s268 -601 601 -601z" />
    <glyph glyph-name="H18533" unicode="&#x25cf;" horiz-adv-x="1800" 
d="M900 -39c-409 0 -739 331 -739 739s330 739 739 739c408 0 739 -331 739 -739s-331 -739 -739 -739z" />
    <glyph glyph-name="uni25D0" unicode="&#x25d0;" horiz-adv-x="1800" 
d="M900 -39c-409 0 -739 331 -739 739s330 739 739 739c408 0 739 -331 739 -739s-331 -739 -739 -739zM900 1301v-1202c332 0 601 269 601 601s-269 601 -601 601z" />
    <glyph glyph-name="uni25D6" unicode="&#x25d6;" horiz-adv-x="1800" 
d="M900 1439v-1478c-409 0 -739 331 -739 739s330 739 739 739z" />
    <glyph glyph-name="uni25E7" unicode="&#x25e7;" horiz-adv-x="1800" 
d="M200 1400h1400v-1400h-1400v1400zM900 1262v-1124h562v1124h-562z" />
    <glyph glyph-name="uni2610" unicode="&#x2610;" horiz-adv-x="2200" 
d="M253 1547h1694v-1694h-1694v1694zM368 1432v-1464h1464v1464h-1464z" />
    <glyph glyph-name="uni2611" unicode="&#x2611;" horiz-adv-x="2200" 
d="M253 1547h1694v-1694h-1694v1694zM368 1432v-1464h1464v1464h-1464zM1573 1198l93 -67l-693 -969l-410 512l88 73l316 -398z" />
    <glyph glyph-name="uni2612" unicode="&#x2612;" horiz-adv-x="2200" 
d="M1947 1547v-1694h-1694v1694h1694zM1832 1432h-1464v-1464h1464v1464zM614 293l404 405l-407 407l82 81l407 -407l407 407l82 -81l-408 -407l405 -405l-81 -82l-405 405l-405 -405z" />
    <glyph glyph-name="heart" unicode="&#x2665;" horiz-adv-x="1800" 
d="M1181 1196c164 0 284 -126 284 -291c0 -244 -262 -528 -565 -740c-303 212 -565 496 -565 740c0 165 120 291 285 291c147 0 280 -102 280 -221c0 119 133 221 281 221z" />
    <glyph glyph-name="uni2713" unicode="&#x2713;" horiz-adv-x="2200" 
d="M1621 1285l109 -81l-815 -1100l-445 485l100 92l334 -365z" />
    <glyph glyph-name="uni2715" unicode="&#x2573;" horiz-adv-x="2113" 
d="M1161 700l959 -959l-104 -106l-959 960l-960 -960l-105 106l959 959l-959 959l105 106l960 -959l959 959l104 -106z" />
    <glyph glyph-name="uni2715" unicode="&#x2715;" horiz-adv-x="2113" 
d="M1161 700l959 -959l-104 -106l-959 960l-960 -960l-105 106l959 959l-959 959l105 106l960 -959l959 959l104 -106z" />
    <glyph glyph-name="uni2717" unicode="&#x2717;" horiz-adv-x="2200" 
d="M1196 700l460 -460l-96 -96l-460 460l-460 -460l-96 96l460 460l-460 460l96 96l460 -460l460 460l96 -96z" />
    <glyph glyph-name="uni278A" unicode="&#x2776;" horiz-adv-x="2050" 
d="M1140 1145l-391 -155v-132l258 103v-671h133v855zM1025 1568c483 0 873 -389 873 -867c0 -479 -390 -869 -873 -869s-872 390 -872 869c0 478 389 867 872 867z" />
    <glyph glyph-name="uni278A" unicode="&#x278a;" horiz-adv-x="2050" 
d="M1140 1145l-391 -155v-132l258 103v-671h133v855zM1025 1568c483 0 873 -389 873 -867c0 -479 -390 -869 -873 -869s-872 390 -872 869c0 478 389 867 872 867z" />
    <glyph glyph-name="uni278B" unicode="&#x2777;" horiz-adv-x="2050" 
d="M735 1002l88 -82c42 52 96 99 187 99c99 0 158 -63 158 -147c0 -63 -33 -115 -82 -164l-321 -314v-104h567v124h-375l221 218c70 68 129 144 129 249c0 155 -108 265 -286 265c-153 0 -239 -80 -286 -144zM1025 1568c483 0 873 -389 873 -867c0 -479 -390 -869 -873 -869
s-872 390 -872 869c0 478 389 867 872 867z" />
    <glyph glyph-name="uni278B" unicode="&#x278b;" horiz-adv-x="2050" 
d="M735 1002l88 -82c42 52 96 99 187 99c99 0 158 -63 158 -147c0 -63 -33 -115 -82 -164l-321 -314v-104h567v124h-375l221 218c70 68 129 144 129 249c0 155 -108 265 -286 265c-153 0 -239 -80 -286 -144zM1025 1568c483 0 873 -389 873 -867c0 -479 -390 -869 -873 -869
s-872 390 -872 869c0 478 389 867 872 867z" />
    <glyph glyph-name="uni278C" unicode="&#x2778;" horiz-adv-x="2050" 
d="M1025 1568c483 0 873 -389 873 -867c0 -479 -390 -869 -873 -869s-872 390 -872 869c0 478 389 867 872 867zM1012 1146c-128 0 -221 -52 -279 -123l81 -85c40 47 106 89 191 89c103 0 176 -49 176 -125c0 -84 -76 -128 -174 -128h-113v-115h112c107 0 193 -48 193 -132
c0 -89 -87 -132 -187 -132c-79 0 -154 31 -206 83l-77 -87c65 -71 167 -113 289 -113c164 0 318 78 318 241c0 96 -65 166 -165 197c90 31 147 99 147 197c0 139 -125 233 -306 233z" />
    <glyph glyph-name="uni278C" unicode="&#x278c;" horiz-adv-x="2050" 
d="M1025 1568c483 0 873 -389 873 -867c0 -479 -390 -869 -873 -869s-872 390 -872 869c0 478 389 867 872 867zM1012 1146c-128 0 -221 -52 -279 -123l81 -85c40 47 106 89 191 89c103 0 176 -49 176 -125c0 -84 -76 -128 -174 -128h-113v-115h112c107 0 193 -48 193 -132
c0 -89 -87 -132 -187 -132c-79 0 -154 31 -206 83l-77 -87c65 -71 167 -113 289 -113c164 0 318 78 318 241c0 96 -65 166 -165 197c90 31 147 99 147 197c0 139 -125 233 -306 233z" />
    <glyph glyph-name="uni278D" unicode="&#x2779;" horiz-adv-x="2050" 
d="M1025 1568c483 0 873 -389 873 -867c0 -479 -390 -869 -873 -869s-872 390 -872 869c0 478 389 867 872 867zM1209 810h-133v-232h-243l291 556h-147l-303 -585v-94h402v-165h133v165h134v123h-134v232z" />
    <glyph glyph-name="uni278D" unicode="&#x278d;" horiz-adv-x="2050" 
d="M1025 1568c483 0 873 -389 873 -867c0 -479 -390 -869 -873 -869s-872 390 -872 869c0 478 389 867 872 867zM1209 810h-133v-232h-243l291 556h-147l-303 -585v-94h402v-165h133v165h134v123h-134v232z" />
    <glyph glyph-name="uni278E" unicode="&#x277a;" horiz-adv-x="2050" 
d="M1295 1135h-486l-11 -447h193c152 0 210 -58 210 -144c0 -85 -62 -144 -173 -144c-90 0 -177 41 -228 95l-72 -95c71 -76 175 -122 301 -122c178 0 311 105 311 275c0 151 -107 252 -313 252h-109l8 207h369v123zM1025 1568c483 0 873 -389 873 -867
c0 -479 -390 -869 -873 -869s-872 390 -872 869c0 478 389 867 872 867z" />
    <glyph glyph-name="uni278E" unicode="&#x278e;" horiz-adv-x="2050" 
d="M1295 1135h-486l-11 -447h193c152 0 210 -58 210 -144c0 -85 -62 -144 -173 -144c-90 0 -177 41 -228 95l-72 -95c71 -76 175 -122 301 -122c178 0 311 105 311 275c0 151 -107 252 -313 252h-109l8 207h369v123zM1025 1568c483 0 873 -389 873 -867
c0 -479 -390 -869 -873 -869s-872 390 -872 869c0 478 389 867 872 867z" />
    <glyph glyph-name="uni278F" unicode="&#x277b;" horiz-adv-x="2050" 
d="M1025 1568c483 0 873 -389 873 -867c0 -479 -390 -869 -873 -869s-872 390 -872 869c0 478 389 867 872 867zM1175 1135h-160l-246 -376c-44 -67 -70 -132 -70 -201c0 -161 137 -280 319 -280c181 0 317 120 317 284c0 154 -123 275 -299 275c-26 0 -50 -4 -73 -10z
M1018 724c102 0 179 -70 179 -164s-77 -163 -179 -163c-103 0 -180 68 -180 163c0 94 77 164 180 164z" />
    <glyph glyph-name="uni278F" unicode="&#x278f;" horiz-adv-x="2050" 
d="M1025 1568c483 0 873 -389 873 -867c0 -479 -390 -869 -873 -869s-872 390 -872 869c0 478 389 867 872 867zM1175 1135h-160l-246 -376c-44 -67 -70 -132 -70 -201c0 -161 137 -280 319 -280c181 0 317 120 317 284c0 154 -123 275 -299 275c-26 0 -50 -4 -73 -10z
M1018 724c102 0 179 -70 179 -164s-77 -163 -179 -163c-103 0 -180 68 -180 163c0 94 77 164 180 164z" />
    <glyph glyph-name="uni2790" unicode="&#x277c;" horiz-adv-x="2050" 
d="M1357 1135h-606v-124h449l-375 -721h158l374 740v105zM1025 1568c483 0 873 -389 873 -867c0 -479 -390 -869 -873 -869s-872 390 -872 869c0 478 389 867 872 867z" />
    <glyph glyph-name="uni2790" unicode="&#x2790;" horiz-adv-x="2050" 
d="M1357 1135h-606v-124h449l-375 -721h158l374 740v105zM1025 1568c483 0 873 -389 873 -867c0 -479 -390 -869 -873 -869s-872 390 -872 869c0 478 389 867 872 867z" />
    <glyph glyph-name="uni2791" unicode="&#x277d;" horiz-adv-x="2050" 
d="M1025 1568c483 0 873 -389 873 -867c0 -479 -390 -869 -873 -869s-872 390 -872 869c0 478 389 867 872 867zM1025 1146c-168 0 -308 -86 -308 -233c0 -101 65 -163 150 -196c-95 -32 -171 -95 -171 -201c0 -151 149 -238 329 -238s330 87 330 238
c0 106 -77 169 -172 201c84 33 150 95 150 196c0 147 -139 233 -308 233zM1025 665c100 0 186 -47 186 -135s-86 -134 -186 -134s-185 46 -185 134s85 135 185 135zM1025 1028c92 0 168 -44 168 -127c0 -85 -75 -130 -168 -130c-92 0 -167 45 -167 130c0 83 75 127 167 127z
" />
    <glyph glyph-name="uni2791" unicode="&#x2791;" horiz-adv-x="2050" 
d="M1025 1568c483 0 873 -389 873 -867c0 -479 -390 -869 -873 -869s-872 390 -872 869c0 478 389 867 872 867zM1025 1146c-168 0 -308 -86 -308 -233c0 -101 65 -163 150 -196c-95 -32 -171 -95 -171 -201c0 -151 149 -238 329 -238s330 87 330 238
c0 106 -77 169 -172 201c84 33 150 95 150 196c0 147 -139 233 -308 233zM1025 665c100 0 186 -47 186 -135s-86 -134 -186 -134s-185 46 -185 134s85 135 185 135zM1025 1028c92 0 168 -44 168 -127c0 -85 -75 -130 -168 -130c-92 0 -167 45 -167 130c0 83 75 127 167 127z
" />
    <glyph glyph-name="uni2792" unicode="&#x277e;" horiz-adv-x="2050" 
d="M1025 1568c483 0 873 -389 873 -867c0 -479 -390 -869 -873 -869s-872 390 -872 869c0 478 389 867 872 867zM879 290h161l246 375c44 67 69 132 69 202c0 160 -136 279 -318 279s-318 -119 -318 -283c0 -155 123 -276 300 -276c25 0 49 3 72 10zM1037 701
c-103 0 -179 69 -179 164c0 94 76 163 179 163s180 -69 180 -163c0 -95 -77 -164 -180 -164z" />
    <glyph glyph-name="uni2792" unicode="&#x2792;" horiz-adv-x="2050" 
d="M1025 1568c483 0 873 -389 873 -867c0 -479 -390 -869 -873 -869s-872 390 -872 869c0 478 389 867 872 867zM879 290h161l246 375c44 67 69 132 69 202c0 160 -136 279 -318 279s-318 -119 -318 -283c0 -155 123 -276 300 -276c25 0 49 3 72 10zM1037 701
c-103 0 -179 69 -179 164c0 94 76 163 179 163s180 -69 180 -163c0 -95 -77 -164 -180 -164z" />
    <glyph glyph-name="uni2B51" unicode="&#x2b51;" horiz-adv-x="1800" 
d="M1066 872h536l-433 -315l166 -511l-434 316l-433 -316l165 511l-435 315h538l165 511z" />
    <glyph glyph-name="uni2B52" unicode="&#x2b52;" horiz-adv-x="1800" 
d="M1066 872h536l-433 -315l166 -511l-434 316l-433 -316l165 511l-435 315h538l165 511zM999 780l-98 303l-98 -303h-320l258 -188l-98 -304l258 188l258 -188l-98 304l258 188h-320z" />
    <glyph glyph-name="uni2E17" unicode="&#x2e17;" horiz-adv-x="929" 
d="M746 883v-131l-563 -205v131zM746 558v-131l-563 -205v131z" />
    <glyph glyph-name="uni2E38" unicode="&#x2e38;" horiz-adv-x="741" 
d="M309 1440h123v-439h208v-120h-208v-208h-123v208h-208v120h208v439z" />
    <glyph glyph-name="uniEA00" unicode="&#xea00;" horiz-adv-x="1800" 
d="M1066 872h536l-433 -315l166 -511l-434 316l-433 -316l165 511l-435 315h538l165 511zM999 780l-98 303v-607l258 -188l-98 304l258 188h-320z" />
    <glyph glyph-name="uniEA01" unicode="&#xea01;" horiz-adv-x="1800" 
d="M901 362l-433 -316l165 511l-435 315h538l165 511v-1021z" />
    <glyph glyph-name="uniFB00" unicode="&#xfb00;" horiz-adv-x="1700" 
d="M796 947v-135h-377v-812h-150v812h-216v135h216v162c0 202 91 350 315 350c107 0 192 -30 259 -71l-54 -125c-51 30 -123 56 -195 56c-122 0 -175 -78 -175 -210v-162h377zM1633 947v-135h-377v-812h-150v812h-216v135h216v162c0 202 91 350 315 350
c107 0 192 -30 259 -71l-54 -125c-51 30 -123 56 -195 56c-122 0 -175 -78 -175 -210v-162h377z" />
    <glyph glyph-name="fi" unicode="&#xfb01;" horiz-adv-x="1363" 
d="M796 947v-135h-377v-812h-150v812h-216v135h216v162c0 202 91 350 315 350c107 0 192 -30 259 -71l-54 -125c-51 30 -123 56 -195 56c-122 0 -175 -78 -175 -210v-162h377zM1188 947v-947h-150v947h150zM1113 1389c59 0 106 -46 106 -106s-47 -105 -106 -105
c-60 0 -105 45 -105 105s45 106 105 106z" />
    <glyph glyph-name="fl" unicode="&#xfb02;" horiz-adv-x="1363" 
d="M796 947v-135h-377v-812h-150v812h-216v135h216v162c0 202 91 350 315 350c107 0 192 -30 259 -71l-54 -125c-51 30 -123 56 -195 56c-122 0 -175 -78 -175 -210v-162h377zM1188 1440v-1440h-150v1440h150z" />
    <glyph glyph-name="uniFB03" unicode="&#xfb03;" horiz-adv-x="2200" 
d="M796 947v-135h-377v-812h-150v812h-216v135h216v162c0 202 91 350 315 350c107 0 192 -30 259 -71l-54 -125c-51 30 -123 56 -195 56c-122 0 -175 -78 -175 -210v-162h377zM1633 947v-135h-377v-812h-150v812h-216v135h216v162c0 202 91 350 315 350
c107 0 192 -30 259 -71l-54 -125c-51 30 -123 56 -195 56c-122 0 -175 -78 -175 -210v-162h377zM2025 947v-947h-150v947h150zM1950 1389c59 0 106 -46 106 -106s-47 -105 -106 -105c-60 0 -105 45 -105 105s45 106 105 106z" />
    <glyph glyph-name="uniFB04" unicode="&#xfb04;" horiz-adv-x="2200" 
d="M796 947v-135h-377v-812h-150v812h-216v135h216v162c0 202 91 350 315 350c107 0 192 -30 259 -71l-54 -125c-51 30 -123 56 -195 56c-122 0 -175 -78 -175 -210v-162h377zM1633 947v-135h-377v-812h-150v812h-216v135h216v162c0 202 91 350 315 350
c107 0 192 -30 259 -71l-54 -125c-51 30 -123 56 -195 56c-122 0 -175 -78 -175 -210v-162h377zM2025 1440v-1440h-150v1440h150z" />
    <glyph glyph-name="uniFB05" unicode="&#xfb05;" horiz-adv-x="1464" 
d="M1377 947v-135h-409v-478c0 -148 78 -213 188 -213c73 0 144 27 198 66l70 -112c-71 -54 -164 -94 -281 -94c-203 0 -324 112 -324 350v481h-205v135h205v91c0 191 -107 281 -252 281c-144 0 -251 -90 -251 -281v-1038h-150v1048c0 280 190 411 401 411
c212 0 401 -131 401 -411v-101h409z" />
    <glyph glyph-name="uniFB06" unicode="&#xfb06;" horiz-adv-x="1893" 
d="M876 862l-65 -116c-61 42 -182 89 -310 89c-135 0 -224 -57 -224 -149c0 -79 69 -118 193 -133l112 -14c201 -26 318 -109 318 -264c0 -180 -162 -293 -417 -293c-122 0 -275 30 -395 121l69 112c72 -56 168 -103 328 -103s261 53 261 153c0 76 -64 122 -198 138l-113 13
c-213 26 -313 121 -313 262c0 179 151 287 378 287c149 0 285 -42 376 -103zM1805 947v-135h-409v-478c0 -148 78 -213 188 -213c73 0 144 27 199 67l70 -113c-71 -54 -165 -94 -281 -94c-204 0 -325 112 -325 350v481h-207v135h207v301h149v-301h409z" />
    <glyph glyph-name="uni030C.alt001" 
d="M-556 1051h-126l7 389h153z" />
    <glyph glyph-name="uni0328.alt001" 
d="M-477 -236l80 -96c-57 -57 -122 -83 -195 -83c-124 0 -213 68 -213 176c0 117 93 204 245 297l37 -58c-93 -76 -141 -147 -141 -209c0 -47 34 -77 85 -77c40 0 73 18 102 50z" />
    <glyph glyph-name="uni0328.alt002" 
d="M-544 72l23 -56c-125 -61 -180 -121 -180 -198c0 -61 48 -104 124 -104c55 0 102 20 143 58l80 -97c-62 -59 -145 -90 -232 -90c-157 0 -261 88 -261 206c0 134 107 211 303 281z" />
    <glyph glyph-name="uni0328.alt003" 
d="M-476 -236l79 -96c-57 -57 -121 -83 -194 -83c-124 0 -213 68 -213 176c0 126 118 207 325 297l35 -58c-150 -73 -219 -138 -219 -209c0 -47 34 -77 85 -77c39 0 72 18 102 50z" />
    <glyph glyph-name="uni0328.alt004" 
d="M-434 -228l80 -97c-62 -59 -145 -90 -232 -90c-157 0 -261 88 -261 206c0 145 125 223 335 300l18 -59c-137 -68 -207 -129 -207 -214c0 -61 48 -104 124 -104c55 0 102 20 143 58z" />
    <glyph glyph-name="i.latn_TRK" horiz-adv-x="500" 
d="M325 947v-947h-150v947h150zM250 1389c59 0 106 -46 106 -106s-47 -105 -106 -105c-60 0 -105 45 -105 105s45 106 105 106z" />
    <glyph glyph-name="j.latn_NLD" horiz-adv-x="504" 
d="M329 947v-1103c0 -168 -93 -259 -236 -259c-49 0 -102 13 -136 32l36 129c24 -12 55 -20 87 -20c61 0 99 38 99 125v1096h150zM271 1092h-148l209 300h190z" />
    <glyph glyph-name="Ldot.latn_CAT" horiz-adv-x="1213" 
d="M1173 152v-152h-971v1400h161v-1248h810zM857 814c61 0 110 -47 110 -109s-49 -109 -110 -109c-62 0 -109 47 -109 109s47 109 109 109z" />
    <glyph glyph-name="ldot.latn_CAT" horiz-adv-x="613" 
d="M325 1440v-1440h-150v1440h150zM552 836c59 0 106 -46 106 -106s-47 -105 -106 -105c-60 0 -105 45 -105 105s45 106 105 106z" />
    <glyph glyph-name="zero.numr" horiz-adv-x="871" 
d="M435 1410c186 0 336 -150 336 -402c0 -251 -150 -402 -336 -402c-185 0 -335 151 -335 402c0 252 150 402 335 402zM435 1292c-115 0 -207 -101 -207 -284s92 -284 207 -284c116 0 208 101 208 284s-92 284 -208 284z" />
    <glyph glyph-name="one.numr" horiz-adv-x="550" 
d="M391 1409v-792h-124v620l-217 -87v122z" />
    <glyph glyph-name="two.numr" horiz-adv-x="681" 
d="M145 1200l-80 77c43 59 121 133 262 133c163 0 260 -102 260 -244c0 -95 -46 -162 -115 -231l-201 -203h340v-115h-517v97l291 291c45 45 74 93 74 151c0 78 -54 136 -143 136c-82 0 -132 -44 -171 -92z" />
    <glyph glyph-name="three.numr" horiz-adv-x="685" 
d="M308 1410c162 0 274 -87 274 -216c0 -89 -50 -152 -128 -183c88 -30 145 -95 145 -182c0 -151 -139 -223 -285 -223c-114 0 -204 39 -264 106l72 82c47 -49 112 -77 186 -77c88 0 163 39 163 122c0 76 -78 118 -171 118h-100v110h100c87 0 154 40 154 117
c0 71 -63 115 -152 115c-78 0 -137 -38 -174 -83l-74 79c53 67 135 115 254 115z" />
    <glyph glyph-name="four.numr" horiz-adv-x="690" 
d="M529 1099v-217h121v-113h-121v-152h-124v152h-365v89l276 541h137l-267 -517h219v217h124z" />
    <glyph glyph-name="five.numr" horiz-adv-x="712" 
d="M582 1399v-114h-336l-6 -189h94c190 0 289 -98 289 -232c0 -160 -122 -258 -284 -258c-115 0 -210 42 -274 113l73 82c48 -48 123 -81 200 -81c100 0 157 56 157 135c0 74 -52 130 -186 130h-182l12 414h443z" />
    <glyph glyph-name="six.numr" horiz-adv-x="709" 
d="M499 1399l-194 -283c19 5 41 8 65 8c164 0 275 -112 275 -256c0 -151 -125 -262 -293 -262c-167 0 -292 110 -292 259c0 65 23 126 64 188l226 346h149zM352 1019c-94 0 -163 -64 -164 -152c0 -88 70 -152 164 -152c95 0 164 64 164 152s-69 152 -164 152z" />
    <glyph glyph-name="seven.numr" horiz-adv-x="663" 
d="M613 1399v-96l-340 -686h-146l340 667h-407v115h553z" />
    <glyph glyph-name="eight.numr" horiz-adv-x="776" 
d="M388 1410c156 0 283 -79 283 -216c0 -94 -59 -151 -134 -181c85 -29 154 -87 154 -187c0 -140 -137 -220 -303 -220c-167 0 -303 80 -303 220c0 100 68 157 153 186c-76 30 -134 87 -134 182c0 137 128 216 284 216zM388 963c-93 0 -170 -44 -170 -124
c0 -84 77 -127 170 -127c92 0 169 43 169 127c0 80 -77 124 -169 124zM388 1302c-84 0 -153 -41 -153 -120c0 -78 69 -119 153 -119c83 0 152 41 152 119c0 79 -69 120 -152 120z" />
    <glyph glyph-name="nine.numr" horiz-adv-x="709" 
d="M211 617l193 283c-19 -5 -40 -8 -64 -8c-165 0 -275 113 -275 256c0 151 124 262 292 262c167 0 293 -110 293 -259c0 -64 -24 -124 -65 -187l-226 -347h-148zM357 997c95 0 163 64 163 152s-69 152 -163 152s-164 -63 -164 -152c0 -88 70 -152 164 -152z" />
    <glyph glyph-name="zero.dnom" horiz-adv-x="871" 
d="M435 793c186 0 336 -150 336 -402c0 -251 -150 -402 -336 -402c-185 0 -335 151 -335 402c0 252 150 402 335 402zM435 675c-115 0 -207 -101 -207 -284s92 -284 207 -284c116 0 208 101 208 284s-92 284 -208 284z" />
    <glyph glyph-name="one.dnom" horiz-adv-x="551" 
d="M391 792v-792h-124v620l-217 -87v122z" />
    <glyph glyph-name="two.dnom" horiz-adv-x="681" 
d="M145 583l-80 77c43 59 121 133 262 133c163 0 260 -102 260 -244c0 -95 -46 -162 -115 -231l-201 -203h340v-115h-517v97l291 291c45 45 74 93 74 151c0 78 -54 136 -143 136c-82 0 -132 -44 -171 -92z" />
    <glyph glyph-name="three.dnom" horiz-adv-x="684" 
d="M308 793c162 0 274 -87 274 -216c0 -89 -50 -152 -128 -183c88 -30 145 -95 145 -182c0 -151 -139 -223 -285 -223c-114 0 -204 39 -264 106l72 82c47 -49 112 -77 186 -77c88 0 163 39 163 122c0 76 -78 118 -171 118h-100v110h100c87 0 154 40 154 117
c0 71 -63 115 -152 115c-78 0 -137 -38 -174 -83l-74 79c53 67 135 115 254 115z" />
    <glyph glyph-name="four.dnom" horiz-adv-x="690" 
d="M529 482v-217h121v-113h-121v-152h-124v152h-365v89l276 541h137l-267 -517h219v217h124z" />
    <glyph glyph-name="five.dnom" horiz-adv-x="713" 
d="M582 782v-114h-336l-6 -189h94c190 0 289 -98 289 -232c0 -160 -122 -258 -284 -258c-115 0 -210 42 -274 113l73 82c48 -48 123 -81 200 -81c100 0 157 56 157 135c0 74 -52 130 -186 130h-182l12 414h443z" />
    <glyph glyph-name="six.dnom" horiz-adv-x="710" 
d="M499 782l-194 -283c19 5 41 8 65 8c164 0 275 -112 275 -256c0 -151 -125 -262 -293 -262c-167 0 -292 110 -292 259c0 65 23 126 64 188l226 346h149zM352 402c-94 0 -163 -64 -164 -152c0 -88 70 -152 164 -152c95 0 164 64 164 152s-69 152 -164 152z" />
    <glyph glyph-name="seven.dnom" horiz-adv-x="663" 
d="M613 782v-96l-340 -686h-146l340 667h-407v115h553z" />
    <glyph glyph-name="eight.dnom" horiz-adv-x="776" 
d="M388 793c156 0 283 -79 283 -216c0 -94 -59 -151 -134 -181c85 -29 154 -87 154 -187c0 -140 -137 -220 -303 -220c-167 0 -303 80 -303 220c0 100 68 157 153 186c-76 30 -134 87 -134 182c0 137 128 216 284 216zM388 346c-93 0 -170 -44 -170 -124
c0 -84 77 -127 170 -127c92 0 169 43 169 127c0 80 -77 124 -169 124zM388 685c-84 0 -153 -41 -153 -120c0 -78 69 -119 153 -119c83 0 152 41 152 119c0 79 -69 120 -152 120z" />
    <glyph glyph-name="nine.dnom" horiz-adv-x="710" 
d="M211 0l193 283c-19 -5 -40 -8 -64 -8c-165 0 -275 113 -275 256c0 151 124 262 292 262c167 0 293 -110 293 -259c0 -64 -24 -124 -65 -187l-226 -347h-148zM357 380c95 0 163 64 163 152s-69 152 -163 152s-164 -63 -164 -152c0 -88 70 -152 164 -152z" />
    <glyph glyph-name="space.frac" horiz-adv-x="106" 
 />
    <glyph glyph-name="b.ordn" horiz-adv-x="885" 
d="M480 1292c184 0 326 -147 326 -344c0 -198 -142 -345 -326 -345c-111 0 -188 53 -235 129v-115h-120v999h123v-448c47 73 123 124 232 124zM460 1177c-128 0 -219 -98 -219 -229s91 -229 219 -229c130 0 219 101 219 229s-89 229 -219 229z" />
    <glyph glyph-name="c.ordn" horiz-adv-x="757" 
d="M424 1292c104 0 194 -41 254 -114l-87 -76c-46 48 -102 75 -170 75c-122 0 -216 -95 -216 -229c0 -135 93 -229 215 -229c69 0 129 30 173 76l85 -78c-61 -72 -150 -114 -254 -114c-204 0 -345 148 -345 345c0 198 141 344 345 344z" />
    <glyph glyph-name="d.ordn" horiz-adv-x="885" 
d="M405 1292c109 0 185 -53 232 -127v451h123v-999h-121v115c-47 -76 -124 -129 -235 -129c-184 0 -325 147 -325 345c0 197 141 344 326 344zM425 1177c-131 0 -220 -101 -220 -229s89 -229 220 -229c127 0 218 98 218 229s-91 229 -218 229z" />
    <glyph glyph-name="e.ordn" horiz-adv-x="804" 
d="M410 1292c183 0 314 -140 316 -342c0 -14 -1 -31 -2 -43h-519c15 -129 105 -197 219 -197c78 0 146 31 199 82l70 -82c-79 -78 -174 -107 -276 -107c-198 0 -338 139 -338 344c0 203 139 345 331 345zM409 1185c-113 0 -187 -78 -203 -191h395c-13 116 -88 191 -192 191z
" />
    <glyph glyph-name="h.ordn" horiz-adv-x="850" 
d="M248 1616v-440c49 82 131 116 217 116c157 0 267 -103 267 -263v-412h-123v373c0 117 -64 186 -176 186c-102 0 -185 -71 -185 -188v-371h-123v999h123z" />
    <glyph glyph-name="l.ordn" horiz-adv-x="373" 
d="M248 1616v-999h-123v999h123z" />
    <glyph glyph-name="m.ordn" horiz-adv-x="1335" 
d="M947 1292c161 0 270 -103 270 -263v-412h-123v373c0 117 -65 186 -177 186c-102 0 -185 -71 -185 -188v-371h-123v373c0 117 -64 186 -176 186c-102 0 -185 -71 -185 -188v-371h-123v662h120v-108c48 86 132 121 220 121c110 0 197 -51 239 -136c50 97 146 136 243 136z
" />
    <glyph glyph-name="r.ordn" horiz-adv-x="596" 
d="M443 1292c42 0 78 -6 107 -20l-22 -122c-31 16 -74 25 -113 25c-101 0 -167 -75 -167 -190v-368h-123v662h120v-99c41 74 110 112 198 112z" />
    <glyph glyph-name="s.ordn" horiz-adv-x="714" 
d="M627 1223l-45 -96c-49 29 -135 61 -219 61c-88 0 -143 -36 -143 -94c0 -50 47 -74 133 -85l71 -9c139 -18 220 -79 220 -186c0 -131 -113 -210 -293 -210c-96 0 -203 23 -282 80l51 94c55 -39 125 -70 233 -70c102 0 166 33 166 97c0 49 -43 77 -135 88l-70 8
c-151 17 -222 85 -222 187c0 128 105 204 268 204c105 0 193 -27 267 -69z" />
    <glyph glyph-name="t.ordn" horiz-adv-x="663" 
d="M588 1279v-111h-276v-307c0 -99 52 -142 126 -142c52 0 103 22 141 49l46 -96c-51 -40 -117 -69 -204 -69c-150 0 -232 85 -232 249v316h-143v111h143v207h123v-207h276z" />
    <glyph glyph-name="u.ordn" horiz-adv-x="857" 
d="M732 1279v-385c0 -196 -139 -291 -304 -291c-164 0 -303 95 -303 291v385h123v-374c0 -125 76 -186 180 -186c106 0 182 61 182 186v374h122z" />
    <glyph glyph-name="egrave.ordn" horiz-adv-x="804" 
d="M410 1292c183 0 314 -140 316 -342c0 -14 -1 -31 -2 -43h-519c15 -129 105 -197 219 -197c78 0 146 31 199 82l70 -82c-79 -78 -174 -107 -276 -107c-198 0 -338 139 -338 344c0 203 139 345 331 345zM409 1185c-113 0 -187 -78 -203 -191h395c-13 116 -88 191 -192 191z
M385 1375l-179 214h150l148 -214h-119z" />
    <glyph glyph-name="zero.osf" horiz-adv-x="1349" 
d="M675 1061c303 0 550 -212 550 -539c0 -329 -247 -541 -550 -541c-304 0 -550 215 -550 541c0 327 246 539 550 539zM675 920c-221 0 -398 -153 -398 -398s177 -400 398 -400s397 152 397 400c0 245 -176 398 -397 398z" />
    <glyph glyph-name="one.osf" horiz-adv-x="767" 
d="M568 1063v-1063h-151v857l-348 -117v150z" />
    <glyph glyph-name="two.osf" horiz-adv-x="1075" 
d="M189 754l-108 93c67 87 200 213 428 213c249 0 419 -158 419 -362c0 -186 -138 -312 -304 -412l-234 -141h598v-145h-871v124l423 267c170 107 229 203 229 300c0 119 -94 223 -266 223c-158 0 -248 -80 -314 -160z" />
    <glyph glyph-name="three.osf" horiz-adv-x="1097" 
d="M503 1060c272 0 457 -157 457 -385c0 -163 -87 -271 -216 -326c146 -55 247 -168 247 -332c0 -267 -232 -395 -475 -395c-194 0 -352 70 -453 186l100 102c86 -90 214 -144 350 -144c175 0 319 82 319 257c0 163 -152 255 -336 255h-181v140h181c170 0 305 83 305 251
c0 153 -134 249 -308 249c-138 0 -243 -74 -304 -160l-112 91c77 121 224 211 426 211z" />
    <glyph glyph-name="four.osf" horiz-adv-x="1143" 
d="M834 490v-346h259v-144h-259v-360h-151v360h-633v119l486 921h164l-470 -896h453v346h151z" />
    <glyph glyph-name="five.osf" horiz-adv-x="1144" 
d="M966 1040v-144h-617l-12 -417h202c335 0 493 -188 493 -418c0 -285 -218 -441 -477 -441c-197 0 -356 74 -474 222l106 96c91 -112 227 -172 367 -172c208 0 319 130 319 281c0 164 -99 288 -381 288h-299l16 705h757z" />
    <glyph glyph-name="six.osf" horiz-adv-x="1147" 
d="M782 1400l-365 -550c43 24 102 42 180 42c260 0 469 -195 469 -456c0 -260 -210 -455 -495 -455s-496 195 -496 456c0 108 37 203 104 308l416 655h187zM571 750c-195 0 -339 -130 -339 -313c0 -184 144 -314 339 -314s338 130 338 314c0 183 -143 313 -338 313z" />
    <glyph glyph-name="seven.osf" horiz-adv-x="1098" 
d="M1023 1040v-118l-636 -1282h-176l630 1256h-766v144h948z" />
    <glyph glyph-name="eight.osf" horiz-adv-x="1207" 
d="M604 1419c256 0 465 -152 465 -386c0 -166 -106 -272 -238 -326c148 -52 270 -160 270 -333c0 -240 -224 -393 -497 -393c-274 0 -498 153 -498 393c0 173 121 281 269 333c-132 54 -236 160 -236 326c0 234 209 386 465 386zM604 637c-187 0 -338 -99 -338 -257
s151 -257 338 -257c186 0 337 99 337 257s-151 257 -337 257zM604 1276c-168 0 -306 -97 -306 -248c0 -159 138 -255 306 -255c167 0 305 96 305 255c0 151 -138 248 -305 248z" />
    <glyph glyph-name="nine.osf" horiz-adv-x="1148" 
d="M366 -359l364 550c-44 -24 -102 -42 -180 -42c-260 0 -469 195 -469 456c0 260 210 455 496 455c284 0 496 -195 496 -456c0 -108 -37 -204 -104 -308l-417 -655h-186zM577 291c194 0 339 130 339 313c0 185 -145 314 -339 314c-196 0 -339 -130 -339 -314
c0 -183 143 -313 339 -313z" />
    <glyph glyph-name="zero.tf" horiz-adv-x="1200" 
d="M603 1418c285 0 520 -229 520 -718c0 -509 -235 -718 -520 -718c-288 0 -527 209 -527 718c0 510 239 718 527 718zM603 1270c-201 0 -367 -156 -367 -570s166 -570 367 -570c197 0 360 156 360 570c0 394 -163 570 -360 570z" />
    <glyph glyph-name="one.tf" horiz-adv-x="1200" 
d="M195 147h392v1059l-407 -146v157l561 200v-1270h367v-147h-913v147z" />
    <glyph glyph-name="two.tf" horiz-adv-x="1200" 
d="M248 1096l-112 90c66 98 189 232 429 232c284 0 447 -186 447 -433c0 -174 -97 -299 -188 -396l-418 -442h652v-147h-881v121l529 558c86 90 144 186 144 306c0 161 -104 286 -290 286c-159 0 -246 -83 -312 -175z" />
    <glyph glyph-name="three.tf" horiz-adv-x="1200" 
d="M557 1418c276 0 463 -156 463 -383c0 -165 -87 -272 -219 -328c148 -54 250 -167 250 -332c0 -266 -234 -393 -481 -393c-195 0 -352 69 -454 184l99 103c87 -90 214 -143 352 -143c174 0 323 82 323 256c0 162 -152 254 -338 254h-184v141h183c172 0 308 84 308 250
c0 151 -135 247 -311 247c-140 0 -247 -73 -309 -159l-111 95c81 119 226 208 429 208z" />
    <glyph glyph-name="four.tf" horiz-adv-x="1200" 
d="M890 830v-390h239v-146h-239v-294h-154v294h-654v119l523 986h175l-513 -959h469v390h154z" />
    <glyph glyph-name="five.tf" horiz-adv-x="1200" 
d="M996 1400v-146h-618l-13 -414h206c330 0 489 -188 489 -412c0 -286 -214 -447 -479 -447c-197 0 -356 74 -474 218l103 100c91 -109 229 -171 371 -171c206 0 319 129 319 287c0 153 -101 279 -376 279h-305l18 706h759z" />
    <glyph glyph-name="six.tf" horiz-adv-x="1200" 
d="M811 1400l-363 -547c44 23 101 40 177 40c261 0 470 -195 470 -456c0 -260 -211 -455 -496 -455s-497 195 -497 455c0 109 37 205 104 310l417 653h188zM599 750c-194 0 -337 -130 -338 -313c0 -182 144 -312 338 -312s337 130 337 312c0 183 -143 313 -337 313z" />
    <glyph glyph-name="seven.tf" horiz-adv-x="1200" 
d="M1080 1400v-121l-633 -1279h-180l627 1254h-764v146h950z" />
    <glyph glyph-name="eight.tf" horiz-adv-x="1200" 
d="M599 1418c267 0 486 -140 486 -383c0 -172 -107 -276 -244 -328c153 -51 277 -155 277 -334c0 -250 -233 -392 -519 -392s-519 142 -519 392c0 179 124 283 277 334c-137 52 -244 156 -244 328c0 243 219 383 486 383zM599 638c-196 0 -356 -89 -356 -256
c0 -169 161 -257 356 -257s355 88 355 257c0 167 -160 256 -355 256zM599 1274c-177 0 -323 -86 -323 -247c0 -168 146 -254 323 -254s323 86 323 254c0 161 -146 247 -323 247z" />
    <glyph glyph-name="nine.tf" horiz-adv-x="1200" 
d="M389 0l342 529c-45 -15 -94 -22 -144 -22c-277 0 -482 195 -482 456c0 260 210 455 496 455c285 0 497 -195 497 -455c0 -109 -37 -205 -104 -310l-417 -653h-188zM601 650c194 0 337 130 337 313c0 182 -143 312 -337 312s-337 -131 -337 -312c0 -182 143 -313 337 -313
z" />
    <glyph glyph-name="uni2007.tf" horiz-adv-x="1200" 
 />
    <glyph glyph-name="zero.tosf" horiz-adv-x="1200" 
d="M599 1060c288 0 523 -209 523 -539c0 -333 -235 -541 -523 -541c-287 0 -522 212 -522 541c0 330 235 539 522 539zM599 923c-204 0 -370 -151 -370 -402s166 -403 370 -403c205 0 371 149 371 403c0 251 -166 402 -371 402z" />
    <glyph glyph-name="one.tosf" horiz-adv-x="1200" 
d="M208 145l374 1v723l-389 -113v152l540 155v-917l355 1v-147h-880v145z" />
    <glyph glyph-name="two.tosf" horiz-adv-x="1200" 
d="M269 754l-108 93c67 87 200 213 428 213c249 0 419 -158 419 -362c0 -186 -138 -312 -304 -412l-234 -141h598v-145h-871v124l423 267c170 107 229 203 229 300c0 119 -94 223 -266 223c-158 0 -248 -80 -314 -160z" />
    <glyph glyph-name="three.tosf" horiz-adv-x="1200" 
d="M569 1060c272 0 457 -157 457 -385c0 -163 -87 -271 -216 -326c146 -55 247 -168 247 -332c0 -267 -232 -395 -475 -395c-194 0 -352 70 -453 186l100 102c86 -90 214 -144 350 -144c175 0 319 82 319 257c0 163 -152 255 -336 255h-181v140h181c170 0 305 83 305 251
c0 153 -134 249 -308 249c-138 0 -243 -74 -304 -160l-112 91c77 121 224 211 426 211z" />
    <glyph glyph-name="four.tosf" horiz-adv-x="1200" 
d="M881 490v-346h259v-144h-259v-360h-151v360h-633v119l486 921h164l-470 -896h453v346h151z" />
    <glyph glyph-name="five.tosf" horiz-adv-x="1200" 
d="M996 1040v-144h-617l-12 -417h202c335 0 493 -188 493 -418c0 -285 -218 -441 -477 -441c-197 0 -356 74 -474 222l106 96c91 -112 227 -172 367 -172c208 0 319 130 319 281c0 164 -99 288 -381 288h-299l16 705h757z" />
    <glyph glyph-name="six.tosf" horiz-adv-x="1200" 
d="M818 1400l-365 -550c43 24 102 42 180 42c260 0 469 -195 469 -456c0 -260 -210 -455 -495 -455s-496 195 -496 456c0 108 37 203 104 308l416 655h187zM607 750c-195 0 -339 -130 -339 -313c0 -184 144 -314 339 -314s338 130 338 314c0 183 -143 313 -338 313z" />
    <glyph glyph-name="seven.tosf" horiz-adv-x="1200" 
d="M1095 1040v-118l-636 -1282h-176l630 1256h-766v144h948z" />
    <glyph glyph-name="eight.tosf" horiz-adv-x="1200" 
d="M613 1419c256 0 465 -152 465 -386c0 -166 -106 -272 -238 -326c148 -52 270 -160 270 -333c0 -240 -224 -393 -497 -393c-274 0 -498 153 -498 393c0 173 121 281 269 333c-132 54 -236 160 -236 326c0 234 209 386 465 386zM613 637c-187 0 -338 -99 -338 -257
s151 -257 338 -257c186 0 337 99 337 257s-151 257 -337 257zM613 1276c-168 0 -306 -97 -306 -248c0 -159 138 -255 306 -255c167 0 305 96 305 255c0 151 -138 248 -305 248z" />
    <glyph glyph-name="nine.tosf" horiz-adv-x="1200" 
d="M383 -359l364 550c-44 -24 -102 -42 -180 -42c-260 0 -469 195 -469 456c0 260 210 455 496 455c284 0 496 -195 496 -456c0 -108 -37 -204 -104 -308l-417 -655h-186zM594 291c194 0 339 130 339 313c0 185 -145 314 -339 314c-196 0 -339 -130 -339 -314
c0 -183 143 -313 339 -313z" />
    <glyph glyph-name="uni2007.tosf" horiz-adv-x="1200" 
 />
    <glyph glyph-name="exclam.sc" horiz-adv-x="523" 
d="M345 1043l-19 -684h-128l-19 684h166zM262 203c59 0 110 -51 110 -110s-51 -111 -110 -111s-111 52 -111 111s52 110 111 110z" />
    <glyph glyph-name="numbersign.sc" horiz-adv-x="1195" 
d="M229 781h170l59 262h127l-59 -262h255l59 262h127l-59 -262h171l-25 -118h-172l-62 -278h171l-26 -119h-171l-59 -266h-127l59 266h-255l-59 -266h-128l59 266h-168l26 119h169l62 278h-170zM500 663l-62 -278h255l62 278h-255z" />
    <glyph glyph-name="dollar.sc" horiz-adv-x="1200" 
d="M546 1173h121v-139c138 -10 247 -52 336 -107l-68 -114c-70 44 -162 81 -268 91v-320l25 -3c192 -25 330 -109 328 -270c-3 -187 -159 -283 -353 -301v-145h-121v143c-139 10 -283 56 -373 122l74 112c66 -46 180 -93 299 -105v324l-23 3c-197 27 -320 114 -318 274
c3 170 146 277 341 295v140zM874 300c1 79 -73 124 -207 147v-308c120 14 206 67 207 161zM350 745c-1 -76 64 -122 196 -145v303c-117 -14 -195 -71 -196 -158z" />
    <glyph glyph-name="percent.sc" horiz-adv-x="1539" 
d="M376 1060c164 0 286 -117 286 -272c0 -157 -122 -273 -286 -273c-161 0 -283 116 -283 273c0 155 122 272 283 272zM376 948c-92 0 -163 -67 -163 -160c0 -94 71 -161 163 -161c95 0 165 67 165 161c0 93 -70 160 -165 160zM1188 1043l-699 -1043h-140l699 1043h140z
M1160 531c163 0 286 -118 286 -273c0 -156 -123 -273 -286 -273c-161 0 -284 117 -284 273c0 155 123 273 284 273zM1160 419c-93 0 -163 -68 -163 -161c0 -94 70 -161 163 -161c95 0 165 67 165 161c0 93 -70 161 -165 161z" />
    <glyph glyph-name="ampersand.sc" horiz-adv-x="1127" 
d="M1096 0h-186l-159 146c-82 -89 -185 -161 -339 -161c-192 0 -311 102 -311 263c0 137 101 228 211 305c-103 98 -153 163 -153 264c0 134 115 241 282 241c165 0 279 -100 279 -238c0 -119 -101 -199 -210 -274l231 -215l170 236l104 -67l-183 -254zM422 107
c100 0 168 46 236 121l-258 243c-87 -62 -157 -127 -157 -214c0 -89 72 -150 179 -150zM297 808c0 -56 31 -93 125 -181c89 60 162 117 162 189c0 68 -56 119 -143 119c-88 0 -144 -52 -144 -127z" />
    <glyph glyph-name="parenleft.sc" horiz-adv-x="662" 
d="M540 1168l45 -124c-202 -81 -323 -287 -323 -522c0 -236 121 -441 323 -523l-45 -123c-251 89 -424 341 -424 646c0 304 173 556 424 646z" />
    <glyph glyph-name="parenright.sc" horiz-adv-x="662" 
d="M122 -125l-45 124c202 81 323 287 323 522c0 236 -121 441 -323 523l45 123c251 -89 424 -341 424 -646c0 -304 -173 -556 -424 -646z" />
    <glyph glyph-name="asterisk.sc" horiz-adv-x="742" 
d="M130 912l188 -62v193h107v-193l187 62l33 -102l-189 -57l118 -155l-87 -63l-116 158l-116 -158l-87 63l118 154l-189 58z" />
    <glyph glyph-name="slash.sc" horiz-adv-x="847" 
d="M770 1043l-532 -1043h-161l532 1043h161z" />
    <glyph glyph-name="zero.sc" horiz-adv-x="1150" 
d="M574 1057c252 0 457 -201 457 -535c0 -335 -205 -537 -457 -537c-251 0 -455 202 -455 537c0 334 204 535 455 535zM574 921c-169 0 -307 -142 -307 -399c0 -258 138 -400 307 -400c171 0 308 142 308 400c0 257 -137 399 -308 399z" />
    <glyph glyph-name="one.sc" horiz-adv-x="720" 
d="M530 1055v-1055h-142v854l-328 -133v145z" />
    <glyph glyph-name="two.sc" horiz-adv-x="884" 
d="M176 796l-99 85c55 77 155 176 342 176c219 0 349 -137 349 -324c0 -128 -69 -220 -151 -302l-297 -297h481v-134h-689v112l401 400c64 63 106 131 106 213c0 111 -77 196 -209 196c-115 0 -182 -59 -234 -125z" />
    <glyph glyph-name="three.sc" horiz-adv-x="902" 
d="M406 1057c221 0 371 -117 371 -288c0 -119 -66 -201 -168 -243c115 -41 192 -126 192 -245c0 -200 -188 -296 -386 -296c-149 0 -275 53 -355 139l87 94c65 -65 163 -104 263 -104c131 0 242 56 242 175c0 110 -112 174 -250 174h-142v127h142c127 0 227 58 227 170
c0 102 -98 167 -231 167c-106 0 -188 -53 -237 -114l-94 90c67 88 182 154 339 154z" />
    <glyph glyph-name="four.sc" horiz-adv-x="912" 
d="M691 632v-288h174v-134h-174v-210h-143v210h-500v104l390 728h159l-377 -698h328v288h143z" />
    <glyph glyph-name="five.sc" horiz-adv-x="929" 
d="M769 1043v-133h-465l-9 -278h143c256 0 384 -131 384 -312c0 -211 -165 -335 -377 -335c-153 0 -279 56 -368 156l85 99c67 -74 173 -122 282 -122c148 0 230 83 230 191c0 113 -75 194 -276 194h-235l13 540h593z" />
    <glyph glyph-name="six.sc" horiz-adv-x="919" 
d="M638 1043l-268 -390c33 12 70 18 107 18c207 0 365 -147 365 -340c0 -199 -165 -346 -385 -346s-386 147 -386 344c0 83 30 160 84 241l310 473h173zM457 545c-135 0 -238 -90 -238 -215s102 -215 238 -215c135 0 237 90 237 215s-102 215 -237 215z" />
    <glyph glyph-name="seven.sc" horiz-adv-x="882" 
d="M811 1043v-112l-474 -931h-168l474 909h-572v134h740z" />
    <glyph glyph-name="eight.sc" horiz-adv-x="1005" 
d="M502 1057c206 0 376 -105 376 -288c0 -124 -82 -202 -187 -243c118 -39 213 -118 213 -248c0 -187 -182 -293 -402 -293c-219 0 -401 106 -401 293c0 130 94 209 212 248c-105 41 -186 119 -186 243c0 183 170 288 375 288zM502 467c-134 0 -248 -61 -248 -177
c0 -117 114 -177 248 -177s248 60 248 177c0 116 -114 177 -248 177zM502 927c-122 0 -223 -58 -223 -168c0 -114 101 -173 223 -173c123 0 225 59 225 173c0 110 -102 168 -225 168z" />
    <glyph glyph-name="nine.sc" horiz-adv-x="919" 
d="M281 0l267 389c-33 -11 -69 -17 -106 -17c-207 0 -365 147 -365 340c0 198 165 346 385 346s386 -147 386 -344c0 -83 -29 -160 -83 -241l-310 -473h-174zM462 498c136 0 238 90 238 215s-102 215 -238 215c-135 0 -237 -91 -237 -215c0 -125 102 -215 237 -215z" />
    <glyph glyph-name="question.sc" horiz-adv-x="766" 
d="M347 352h-127v237h54c169 0 268 61 268 169c0 99 -102 161 -264 161c-38 0 -77 -4 -107 -6l-11 138c37 6 88 9 132 9c247 0 402 -116 402 -293c0 -168 -124 -275 -341 -300zM284 203c59 0 110 -51 110 -110s-51 -111 -110 -111s-110 52 -110 111s51 110 110 110z" />
    <glyph glyph-name="at.sc" horiz-adv-x="1502" 
d="M1029 810v-336c0 -96 28 -141 82 -141c78 0 132 77 132 228c0 277 -211 462 -492 462c-282 0 -491 -207 -491 -493c0 -289 209 -498 491 -498c112 0 213 32 300 94l67 -83c-106 -80 -235 -117 -367 -117c-353 0 -612 260 -612 604c0 340 259 600 612 600
s612 -238 612 -569c0 -189 -98 -331 -257 -331c-95 0 -150 43 -174 104c-43 -57 -110 -97 -204 -97c-164 0 -281 126 -281 293c0 166 115 293 279 293c86 0 148 -40 191 -94v81h112zM742 716c-105 0 -178 -81 -178 -186s73 -186 178 -186s178 78 178 186
c0 106 -73 186 -178 186z" />
    <glyph glyph-name="bracketleft.sc" horiz-adv-x="639" 
d="M562 27v-125h-369v1240h369v-126h-228v-989h228z" />
    <glyph glyph-name="backslash.sc" horiz-adv-x="847" 
d="M609 0l-532 1043h161l532 -1043h-161z" />
    <glyph glyph-name="bracketright.sc" horiz-adv-x="639" 
d="M77 1017v125h369v-1240h-369v126h228v989h-228z" />
    <glyph glyph-name="a.sc" horiz-adv-x="1144" 
d="M662 1043l450 -1043h-158l-117 274h-535l-116 -274h-154l451 1043h179zM570 903l-210 -493h420z" />
    <glyph glyph-name="b.sc" horiz-adv-x="1173" 
d="M193 1043h439c242 0 402 -85 402 -280c0 -108 -62 -189 -155 -228c104 -40 178 -126 178 -245c0 -197 -153 -290 -404 -290h-460v1043zM646 463h-305v-332h305c156 0 257 41 257 167c0 124 -101 165 -257 165zM627 911h-286v-317h287c144 0 252 35 252 159
c0 122 -108 158 -253 158z" />
    <glyph glyph-name="c.sc" horiz-adv-x="1194" 
d="M657 1058c187 0 352 -84 439 -227l-125 -77c-65 102 -181 162 -315 162c-219 0 -386 -160 -386 -394c0 -240 171 -396 386 -396c133 0 250 60 316 162l120 -85c-91 -137 -249 -218 -435 -218c-312 0 -541 223 -541 537c0 313 229 536 541 536z" />
    <glyph glyph-name="d.sc" horiz-adv-x="1270" 
d="M193 1043h416c327 0 545 -207 545 -522s-218 -521 -545 -521h-416v1043zM607 904h-267v-766h267c253 0 394 157 394 383c0 228 -141 383 -394 383z" />
    <glyph glyph-name="e.sc" horiz-adv-x="1134" 
d="M979 136v-136h-786v1043h782v-136h-634v-314h611v-136h-611v-321h638z" />
    <glyph glyph-name="f.sc" horiz-adv-x="1083" 
d="M938 588v-136h-597v-452h-148v1043h774v-136h-626v-319h597z" />
    <glyph glyph-name="g.sc" horiz-adv-x="1277" 
d="M659 1058c165 0 306 -64 400 -169l-107 -104c-70 82 -174 133 -297 133c-219 0 -386 -161 -386 -396c0 -242 170 -399 383 -399c200 0 332 118 354 312h-316v125h468c2 -15 3 -29 3 -44c-1 -309 -214 -531 -507 -531c-286 0 -538 205 -538 537c0 314 232 536 543 536z
" />
    <glyph glyph-name="h.sc" horiz-adv-x="1305" 
d="M341 1043v-449h623v449h148v-1043h-148v456h-623v-456h-148v1043h148z" />
    <glyph glyph-name="i.sc" horiz-adv-x="534" 
d="M341 1043v-1043h-148v1043h148z" />
    <glyph glyph-name="j.sc" horiz-adv-x="951" 
d="M768 1043v-664c0 -257 -165 -394 -389 -394c-171 0 -279 71 -340 138l90 107c50 -56 130 -103 245 -103c148 0 246 88 246 265v651h148z" />
    <glyph glyph-name="k.sc" horiz-adv-x="1149" 
d="M341 1043v-450h141l424 450h188l-498 -512l531 -531h-195l-452 456h-139v-456h-148v1043h148z" />
    <glyph glyph-name="l.sc" horiz-adv-x="1005" 
d="M966 138v-138h-773v1043h148v-905h625z" />
    <glyph glyph-name="m.sc" horiz-adv-x="1544" 
d="M1351 1043v-1043h-148v861l-353 -748h-155l-354 745v-858h-148v1043h217l362 -760l362 760h217z" />
    <glyph glyph-name="n.sc" horiz-adv-x="1322" 
d="M1129 1043v-1043h-137l-651 795v-795h-148v1043h137l652 -795v795h147z" />
    <glyph glyph-name="o.sc" horiz-adv-x="1315" 
d="M658 1058c312 0 541 -225 541 -536c0 -313 -229 -537 -541 -537c-313 0 -542 224 -542 537c0 311 229 536 542 536zM658 916c-221 0 -388 -160 -388 -394c0 -236 167 -396 388 -396c220 0 387 160 387 396c0 234 -167 394 -387 394z" />
    <glyph glyph-name="p.sc" horiz-adv-x="1115" 
d="M621 401h-280v-401h-148v1043h428c252 0 397 -122 397 -322c0 -199 -145 -320 -397 -320zM618 907h-277v-372h277c158 0 248 64 248 186s-90 186 -248 186z" />
    </font>
</defs>
</svg>
